Всегда рабочее зеркало без VPN и Proxy просто перед .vidak.icu напиши любое слово или цифру, Пример http://w57g.vidak.icu

MVO

Лицензия

1 сезон

1

1 сезон

iTunes

1 сезон

13

1 сезон

Deluxe

pack

Рекомендуем

Пиратка

30

ВАЖНО

RePack

MK11

RePack

jed

RePack

fifa19

RePack

RDR2

RePack

NEED FOR SPEED™ PAYBACK

Кинопоиск HD

6 сезон

 Острые козырьки 6 сезон

Все сериалы

все сериалы на PB.wtf

RePack

FAR CRY 5

Anonymous, нам критически не хватает 2100 руб. на оплату серверов и переферии за МАЙ, помоги нам пожалуйста, вся надежда только на тебя. В благодарность мы отключим тебе всю рекламу на сайте!

×
  
Magnet ссылка

Тело / El cuerpo (Ориол Паоло) [2012, детектив, криминал, триллер, BDRip 1080p by msltel] MVO, AVO, 2 x VO pb.wtf

Тело через торрент pb.wtf

Размер: 13.96 GB | Добавлен: 2 года 7 мес. назад | Торрент скачан:73 раза
Смотреть онлайн Тело | Скачать    Ребята, помогите собрать деньги на оплату серверов!!!

18-11-2019 07:02 Тело Скачать торрент  

Название: Тело
Оригинальное название: El cuerpo
Год выпуска: 2012
Страна: Испания
Жанр: детектив, криминал, триллер
Продолжительность: 01:51:12
Перевод: закадровый многоголосый, закадровый одноголосый, авторский

Режиссер: Ориол Паоло
В ролях: Хосе Коронадо, Уго Сильва, Белен Руэда, Аура Гарридо, Мигель Гелаберт, Хуан Пабло Шук, Ориоль Вила, Карлота Ольсина, Патрисия Баргальо, Миа Эстеве

О фильме: Автомобиль сбивает человека, в панике убегающего от кого-то или от чего-то. Прибывшие на место полицейские выясняют, что сбитый бедолага — ночной сторож из близлежащего морга. Что так напугало несчастного? И куда делся из морга недавно привезённый труп?...



Качество: BDRip 1080p
Формат: MKV
Видео: MPEG-4 AVC, 12.5 Mбит/с, 1920x804
Аудио 1: русский, AC3, 448 kbps, 6 ch, 48 kHz [закадровый многоголосый, BabylonFilms]
Аудио 2: русский, DTS, 1509 kbps, 6 ch, 48 kHz [авторский, Антон Карповский]
Аудио 3: русский, DTS, 1509 kbps, 6 ch, 48 kHz [закадровый одноголосый, хихидок по субтитрам Janetta]
Аудио 4: русский, AC3, 448 kbps, 6 ch, 48 kHz [закадровый одноголосый, Perevodman с ненормативной лексикой]
Аудио 5: английский, DTS, 1509 kbps, 6 ch, 48 kHz [оригинал]
Субтитры 1: русские (marimerci)
Субтитры 2: английские
Главы/чаптеры
Общее
Уникальный идентификатор : 205728560919369496655190589720027147057 (0x9AC5E12CBF28EE3B9F1CB335B7EB2B31)
Полное имя : D:\Video\Тело.2012.BDRip 1080p by msltel.mkv
Формат : Matroska
Версия формата : Version 4
Размер файла : 14,0 Гбайт
Продолжительность : 1 ч. 51 м.
Общий поток : 18,0 Мбит/сек
Название фильма : Rip by msltel
Дата кодирования : UTC 2019-11-18 02:10:51
Программа кодирования : mkvmerge v8.2.0 ('World of Adventure') 64bit
Библиотека кодирования : libebml v1.3.1 + libmatroska v1.4.2

Видео
Идентификатор : 1
Формат : AVC
Формат/Информация : Advanced Video Codec
Профиль формата : High@L4.1
Настройки формата : CABAC / 4 Ref Frames
Параметр CABAC формата : Да
Параметр RefFrames формата : 4 кадра
Идентификатор кодека : V_MPEG4/ISO/AVC
Продолжительность : 1 ч. 51 м.
Битрейт : 12,5 Мбит/сек
Ширина : 1920 пикселей
Высота : 804 пикселя
Соотношение сторон : 2,40:1
Режим частоты кадров : Постоянный
Частота кадров : 24,000 кадра/сек
Цветовое пространство : YUV
Субдискретизация насыщенности : 4:2:0
Битовая глубина : 8 бит
Тип развёртки : Прогрессивная
Бит/(Пиксели*Кадры) : 0.339
Размер потока : 9,74 Гбайт (70%)
Библиотека кодирования : x264 core 157 r2935 545de2f
Настройки программы : cabac=1 / ref=4 / deblock=1:-2:-2 / analyse=0x3:0x113 / me=umh / subme=11 / psy=1 / psy_rd=1.00:0.15 / mixed_ref=1 / me_range=32 / chroma_me=1 / trellis=2 / 8x8dct=1 / cqm=0 / deadzone=21,11 / fast_pskip=0 / chroma_qp_offset=-3 / threads=6 / lookahead_threads=1 / sliced_threads=0 / nr=0 / decimate=1 / interlaced=0 / bluray_compat=0 / constrained_intra=0 / bframes=9 / b_pyramid=2 / b_adapt=2 / b_bias=0 / direct=1 / weightb=1 / open_gop=0 / weightp=2 / keyint=230 / keyint_min=23 / scenecut=40 / intra_refresh=0 / rc_lookahead=40 / rc=crf / mbtree=1 / crf=16.5 / qcomp=0.60 / qpmin=0 / qpmax=69 / qpstep=4 / vbv_maxrate=50000 / vbv_bufsize=62500 / crf_max=0.0 / nal_hrd=none / filler=0 / ip_ratio=1.40 / aq=1:1.00
Язык : Spanish
Default : Да
Forced : Нет

Аудио #1
Идентификатор : 2
Формат : AC-3
Формат/Информация : Audio Coding 3
Коммерческое название : Dolby Digital
Идентификатор кодека : A_AC3
Продолжительность : 1 ч. 51 м.
Вид битрейта : Постоянный
Битрейт : 448 Кбит/сек
Каналы : 6 каналов
ChannelLayout : L R C LFE Ls Rs
Частота : 48,0 КГц
Частота кадров : 31,250 кадров/сек (1536 SPF)
Метод сжатия : С потерями
Размер потока : 356 Мбайт (2%)
Заголовок : MVO BabylonFilms
Язык : Russian
ServiceKind/String : Complete Main
Default : Да
Forced : Нет

Аудио #2
Идентификатор : 3
Формат : DTS
Формат/Информация : Digital Theater Systems
Идентификатор кодека : A_DTS
Продолжительность : 1 ч. 51 м.
Вид битрейта : Постоянный
Битрейт : 1509 Кбит/сек
Каналы : 6 каналов
ChannelLayout : C L R Ls Rs LFE
Частота : 48,0 КГц
Частота кадров : 93,750 кадра/сек (512 SPF)
Битовая глубина : 24 бит
Метод сжатия : С потерями
Размер потока : 1,17 Гбайт (8%)
Заголовок : Антон Карповский
Язык : Russian
Default : Нет
Forced : Нет

Аудио #3
Идентификатор : 4
Формат : DTS
Формат/Информация : Digital Theater Systems
Идентификатор кодека : A_DTS
Продолжительность : 1 ч. 51 м.
Вид битрейта : Постоянный
Битрейт : 1509 Кбит/сек
Каналы : 6 каналов
ChannelLayout : C L R Ls Rs LFE
Частота : 48,0 КГц
Частота кадров : 93,750 кадра/сек (512 SPF)
Битовая глубина : 24 бит
Метод сжатия : С потерями
Размер потока : 1,17 Гбайт (8%)
Заголовок : хихидок по субтитрам Janetta
Язык : Russian
Default : Нет
Forced : Нет

Аудио #4
Идентификатор : 5
Формат : AC-3
Формат/Информация : Audio Coding 3
Коммерческое название : Dolby Digital
Идентификатор кодека : A_AC3
Продолжительность : 1 ч. 51 м.
Вид битрейта : Постоянный
Битрейт : 448 Кбит/сек
Каналы : 6 каналов
ChannelLayout : L R C LFE Ls Rs
Частота : 48,0 КГц
Частота кадров : 31,250 кадров/сек (1536 SPF)
Метод сжатия : С потерями
Размер потока : 356 Мбайт (2%)
Заголовок : Perevodman, с ненормативной лексикой
Язык : Russian
ServiceKind/String : Complete Main
Default : Нет
Forced : Нет

Аудио #5
Идентификатор : 6
Формат : DTS
Формат/Информация : Digital Theater Systems
Идентификатор кодека : A_DTS
Продолжительность : 1 ч. 51 м.
Вид битрейта : Постоянный
Битрейт : 1509 Кбит/сек
Каналы : 6 каналов
ChannelLayout : C L R Ls Rs LFE
Частота : 48,0 КГц
Частота кадров : 93,750 кадра/сек (512 SPF)
Битовая глубина : 24 бит
Метод сжатия : С потерями
Размер потока : 1,17 Гбайт (8%)
Заголовок : original
Язык : Spanish
Default : Нет
Forced : Нет

Текст #1
Идентификатор : 7
Формат : UTF-8
Идентификатор кодека : S_TEXT/UTF8
Идентификатор кодека/Информация : UTF-8 Plain Text
Продолжительность : 1 ч. 44 м.
Битрейт : 102 бит/сек
ElementCount : 1272
Размер потока : 78,5 Кбайт (0%)
Заголовок : русские marimerci
Язык : Russian
Default : Нет
Forced : Нет

Текст #2
Идентификатор : 8
Формат : UTF-8
Идентификатор кодека : S_TEXT/UTF8
Идентификатор кодека/Информация : UTF-8 Plain Text
Продолжительность : 1 ч. 44 м.
Битрейт : 55 бит/сек
ElementCount : 1270
Размер потока : 42,5 Кбайт (0%)
Заголовок : английские
Язык : English
Default : Нет
Forced : Нет

Меню
00:00:00.000 : en:00:00:00.000
00:08:30.000 : en:00:08:30.000
00:18:20.000 : en:00:18:20.000
00:26:33.000 : en:00:26:33.000
00:36:05.000 : en:00:36:05.000
00:45:13.000 : en:00:45:13.000
00:52:10.000 : en:00:52:10.000
01:00:11.000 : en:01:00:11.000
01:08:29.000 : en:01:08:29.000
01:16:49.000 : en:01:16:49.000
01:28:19.000 : en:01:28:19.000
01:34:22.000 : en:01:34:22.000
pb.wtf



Скачать Тело через торрент https://d.radikal.ru/d00/1911/22/5d7f17b72b6e.png Скачать, смотреть онлайн Тело бесплантно в хорошем качестве О фильме: Автомобиль сбивает человека, в панике убегающего от кого-то или от чего-то. Прибывшие на место полицейские выясняют, что сбитый ... 8.7 10 3
Торрент: Зарегистрирован [2019-11-18 07:02] · скачан: 73 раз
Статус: √ проверено
Размер: 13.96 GB
Как cкачать? Как скачать Тело через торрент | UTorrent

% Раздел Тема Автор DL S | L
Фильмы 2012 [ 3.53 GB ] Тело / El cuerpo [2012 BDRip by msltel] MVO AVO 2 x VO msltel Скачать
1 | 0
Фильмы [HD 720p, 1080p] (Хороший звук DUB, MVO) [ 5.34 GB ] Тело / El cuerpo [2012 BDRip 720p by msltel] MVO AVO 2 x VO msltel Скачать
1 | 0

28-11-2019 20:33  

Отключить всю рекламу на сайте

20-11-2019 03:51 Тело Скачать торрент  

на скриншотах показана вся суть фильма...pb.wtf



20-11-2019 06:57 Тело Скачать торрент  

kickass duke писал(а):

на скриншотах показана вся суть фильма...

Вы верно поняли цель моих стараний в выборке скриншотов.pb.wtf



21-11-2019 05:09 Тело Скачать торрент  

msltel писал(а):

kickass duke писал(а):

на скриншотах показана вся суть фильма...

Вы верно поняли цель моих стараний в выборке скриншотов.

pb.wtf



    Дорогой пользователь! Огромная просьба, поблагодарите релизера, оцените раздачу и оставьте свои комментарий, если Вы скачали Тело через торрент бесплатно!
    Комментировать посты могут только пользователи прошедшие не сложную регистрацию
    Показать сообщения:    

    Тело через торрент
    Скачать бесплатно Тело
    Тело скачать торрент
    Тело смотреть онлайн
    Cкачать фильм Тело бесплатно
    Тело скачать торрент в хорошем качестве
    Тело смотреть онлайн бесплатно в хорошем качестве


    Вы не можете начинать темы
    Вы не можете отвечать на сообщения
    Вы не можете редактировать свои сообщения
    Вы не можете удалять свои сообщения
    Вы не можете голосовать в опросах
    Вы не можете прикреплять файлы к сообщениям
    Вы можете скачивать файлы