Ссылка на приватное зеркало всего за 1$. Внимание количество ограничено!!!

OK

1+1

iTunes

мы

OK

1

WEB-DLRip

Джокер

Пифагор

Ведьмак / The Witcher сериал

Лицензия

ПШазам

ОК

Оно 2

iTunes

30
pack

Вам бонус

ВАЖНО

!!Акция!!

Alien_RageХит недели

RePack

Resident Evil 21

ИГРА 18+

pack

RePack

jed

!!Акция!!

Alien_Rage

RePack

fifa19

RePack

Assassins Creed: Odyssey

RePack

NEED FOR SPEED™ PAYBACK

4 сезон

9 сезон

Бесстыжие 9 сезон

Все сериалы

все сериалы на PB.wtf

RePack

FAR CRY 5
  

Барбара / Barbara (Кристиан Петцольд) [2012, драма, BDRip (AVC) by msltel] MVO pb.wtf

Барбара через торрент pb.wtf

Размер: 2.46 GB | Добавлен: 1 мес. 25 д. назад | Торрент скачан:3 раза
Скачать  

22-11-2019 08:07 Барбара Скачать торрент  

Название: Барбара
Оригинальное название: Barbara
Год выпуска: 2012
Страна: Германия
Жанр: драма
Продолжительность: 01:45:07
Перевод: закадровый многоголосый

Режиссер: Кристиан Петцольд
В ролях: Нина Хосс, Рональд Церфельд, Райнер Бок, Кристина Хеке, Клаудия Гейслер, Питер Уайсс, Каролин Хаупт, Дениз Петцольд, Роза Энскат, Ясна Фритци Бауэр

О фильме: Лето 1980 года. Барбара, молодая женщина-врач, хочет покинуть родную страну. Но как только она подаёт документы на выезд из ГДР, её, в наказание, отправляют работать в глухую провинцию. И теперь Йорг, её возлюбленный, живущий на Западе, готовит для неё побег. За Барбарой постоянно и демонстративно следят сотрудники Штази. Она живёт замкнуто. Ни новое жилище, ни соседи, ни городок, ни лето наконец — ничто не имеет для неё значения. Только на работе, общаясь со своими пациентами, она оттаивает, но от коллег держится в стороне. Все её мысли устремлены в будущее — там начнется её настоящая жизнь. Постепенно что-то начинает происходить между Барбарой и главврачом Андре. Он полностью доверяет ей как профессионалу, он доброжелателен и заботлив. Это приводит Барбару в замешательство. Он следит за ней? Или любит её? День, назначенный для побега, все ближе, а Барбара начинает терять контроль — над собой, над своими планами, над своими чувствами...



Качество: BDRip (AVC)
Формат: MKV
Видео: MPEG-4 AVC, 2713 Kбит/с, 1024x576
Аудио 1: русский, AC3, 192 kbps, 2 ch, 48 kHz [закадровый многоголосый]
Аудио 2: немецкий, AC3, 448 kbps, 6 ch, 48 kHz [оригинал]
Субтитры: английские
Главы/чаптеры
Общее
Уникальный идентификатор : 199349257455562196882666227221635381877 (0x95F9453B1083283B9A33D4BE084DBA75)
Полное имя : D:\Video\Барбара.2012.BDRip (AVC) by msltel.mkv
Формат : Matroska
Версия формата : Version 4
Размер файла : 2,46 Гбайт
Продолжительность : 1 ч. 45 м.
Общий поток : 3355 Кбит/сек
Название фильма : Rip by msltel
Дата кодирования : UTC 2019-11-22 02:09:21
Программа кодирования : mkvmerge v8.2.0 ('World of Adventure') 64bit
Библиотека кодирования : libebml v1.3.1 + libmatroska v1.4.2

Видео
Идентификатор : 1
Формат : AVC
Формат/Информация : Advanced Video Codec
Профиль формата : High@L4.1
Настройки формата : CABAC / 9 Ref Frames
Параметр CABAC формата : Да
Параметр RefFrames формата : 9 кадров
Идентификатор кодека : V_MPEG4/ISO/AVC
Продолжительность : 1 ч. 45 м.
Битрейт : 2713 Кбит/сек
Ширина : 1024 пикселя
Высота : 576 пикселей
Соотношение сторон : 16:9
Режим частоты кадров : Постоянный
Частота кадров : 24,000 кадра/сек
Цветовое пространство : YUV
Субдискретизация насыщенности : 4:2:0
Битовая глубина : 8 бит
Тип развёртки : Прогрессивная
Бит/(Пиксели*Кадры) : 0.192
Размер потока : 1,99 Гбайт (81%)
Библиотека кодирования : x264 core 157 r2935 545de2f
Настройки программы : cabac=1 / ref=9 / deblock=1:-2:-2 / analyse=0x3:0x113 / me=umh / subme=11 / psy=1 / psy_rd=1.00:0.15 / mixed_ref=1 / me_range=32 / chroma_me=1 / trellis=2 / 8x8dct=1 / cqm=0 / deadzone=21,11 / fast_pskip=0 / chroma_qp_offset=-3 / threads=6 / lookahead_threads=1 / sliced_threads=0 / nr=0 / decimate=1 / interlaced=0 / bluray_compat=0 / constrained_intra=0 / bframes=8 / b_pyramid=2 / b_adapt=2 / b_bias=0 / direct=1 / weightb=1 / open_gop=0 / weightp=2 / keyint=230 / keyint_min=23 / scenecut=40 / intra_refresh=0 / rc_lookahead=40 / rc=crf / mbtree=1 / crf=19.1 / qcomp=0.60 / qpmin=0 / qpmax=69 / qpstep=4 / vbv_maxrate=50000 / vbv_bufsize=62500 / crf_max=0.0 / nal_hrd=none / filler=0 / ip_ratio=1.40 / aq=1:1.00
Язык : German
Default : Да
Forced : Нет

Аудио #1
Идентификатор : 2
Формат : AC-3
Формат/Информация : Audio Coding 3
Коммерческое название : Dolby Digital
Идентификатор кодека : A_AC3
Продолжительность : 1 ч. 45 м.
Вид битрейта : Постоянный
Битрейт : 192 Кбит/сек
Каналы : 2 канала
ChannelLayout : L R
Частота : 48,0 КГц
Частота кадров : 31,250 кадров/сек (1536 SPF)
Метод сжатия : С потерями
Размер потока : 144 Мбайт (6%)
Заголовок : MVO
Язык : Russian
ServiceKind/String : Complete Main
Default : Да
Forced : Нет

Аудио #2
Идентификатор : 3
Формат : AC-3
Формат/Информация : Audio Coding 3
Коммерческое название : Dolby Digital
Идентификатор кодека : A_AC3
Продолжительность : 1 ч. 45 м.
Вид битрейта : Постоянный
Битрейт : 448 Кбит/сек
Каналы : 6 каналов
ChannelLayout : L R C LFE Ls Rs
Частота : 48,0 КГц
Частота кадров : 31,250 кадров/сек (1536 SPF)
Метод сжатия : С потерями
Размер потока : 337 Мбайт (13%)
Заголовок : original
Язык : German
ServiceKind/String : Complete Main
Default : Нет
Forced : Нет

Текст
Идентификатор : 4
Формат : UTF-8
Идентификатор кодека : S_TEXT/UTF8
Идентификатор кодека/Информация : UTF-8 Plain Text
Продолжительность : 1 ч. 38 м.
Битрейт : 25 бит/сек
ElementCount : 690
Размер потока : 18,2 Кбайт (0%)
Заголовок : английские
Язык : English
Default : Нет
Forced : Нет

Меню
00:00:00.000 : :Chapter 01
00:10:25.833 : :Chapter 02
00:21:07.250 : :Chapter 03
00:28:59.625 : :Chapter 04
00:40:22.708 : :Chapter 05
00:48:38.500 : :Chapter 06
00:57:03.625 : :Chapter 07
01:06:38.750 : :Chapter 08
01:20:00.708 : :Chapter 09
01:31:25.208 : :Chapter 10
01:41:09.791 : :Chapter 11
pb.wtf



Скачать Барбара через торрент https://d.radikal.ru/d27/1911/02/f3afa953a53e.jpg Скачать фильм Барбара через торрент бесплантно в хорошем качестве О фильме: Лето 1980 года. Барбара, молодая женщина-врач, хочет покинуть родную страну. Но как только она подаёт документы на выезд из ГДР, ... 5 10 1
Торрент: Зарегистрирован [2019-11-22 08:07] · скачан: 3 раз
Статус: √ проверено
Размер: 2.46 GB
Как cкачать? Как скачать Барбара через торрент | qTorrent

% Раздел Тема Автор DL S | L
Фильмы [HD 720p, 1080p] (Хороший звук DUB, MVO) [ 14.47 GB ] Барбара / Barbara [2012 BDRip 1080p by msltel] MVO msltel Скачать
1 | 0
Фильмы [HD 720p, 1080p] (Хороший звук DUB, MVO) [ 4.57 GB ] Барбара / Barbara [2012 BDRip 720p by msltel] MVO msltel Скачать
1 | 0

28-11-2019 20:33  

Отключить всю рекламу на сайте

    Дорогой пользователь! Огромная просьба, поблагодарите релизера, оцените раздачу и оставьте свои комментарий, если Вы скачали Барбара через торрент бесплатно! Внесите свою лепту в развитие PiratBit!
    Комментировать посты могут только пользователи прошедшие не сложную регистрацию
    Показать сообщения:    

    Барбара через торрент
    Скачать бесплатно Барбара
    Барбара скачать торрент
    Барбара смотреть онлайн
    Cкачать фильм Барбара бесплатно
    Барбара скачать торрент в хорошем качестве
    Барбара смотреть онлайн бесплатно в хорошем качестве


    Вы не можете начинать темы
    Вы не можете отвечать на сообщения
    Вы не можете редактировать свои сообщения
    Вы не можете удалять свои сообщения
    Вы не можете голосовать в опросах
    Вы не можете прикреплять файлы к сообщениям
    Вы можете скачивать файлы