Ссылка на приватное зеркало нашего сайта всего за 1$. Внимание количество ограничено!!!

2 сезон

iTunes

iTunes

1

iTunes

iTunes

iTunes

WEBRip

iTunes

30
pack

Вам бонус

ВАЖНО

!!Акция!!

Alien_RageХит недели

RePack

Horizon Zero Dawn

ИГРА 18+

pack

RePack

jed

!!Акция!!

Alien_Rage

RePack

fifa19

RePack

Assassins Creed: Odyssey

RePack

NEED FOR SPEED™ PAYBACK

4 сезон

9 сезон

Бесстыжие 9 сезон

Все сериалы

все сериалы на PB.wtf

RePack

FAR CRY 5
  

Победитель / Overcomer (Алекс Кендрик) [2019, Драма, спорт, WEB-DL 1080p] MVO [iTunes] pb.wtf

Победитель через торрент pb.wtf

Размер: 4.4 GB | Добавлен: 10 мес. назад | Торрент скачан:73 раза
Скачать  

24-11-2019 21:37 Победитель Скачать торрент  

Победитель / Overcomer
Год выпуска: 2019
Страна: США
Жанр: Драма, спорт
Продолжительность: 01:59:10
Перевод: Профессиональный многоголосый | iTunes
Субтитры: Русские (full), английские (full)

Режиссер: Алекс Кендрик

rating

В ролях: Алекс Кендрик, Шари Вьедманн, Арин Райт-Томпсон, Камерон Арнетт, Присцилла Эванс Ширер, Бен Дейвис, Элизабет Бечка, Дениз Армстронг, Джек Стернер, Холли Моррис

Описание: Жизнь тренера Джона Харрисона резко меняется, когда его школьная баскетбольная команда и мечты о чемпионате штата неожиданно накрываются медным тазом. Самый большой завод города внезапно закрывается, сотни семей выезжают, и Джон должен преодолеть проблемы своей семьи и команды. Директор школы просит Джона заменить тренера в спорте, который он не знает и не любит, Джон расстроен и сомневается, что чего-то стоит... но вдруг он знакомится с ученицей, которая тоже пытается решить свои проблемы. Этот вдохновляющий фильм для семейного просмотра наполняет надеждой, вдохновляет мечты и задает вопрос: каким обстоятельствам вы позволяете влиять на вашу жизнь?

Качество: WEB-DL 1080p
Формат: MKV

Видео: 1920x796 (2.40:1), 23.976 fps, MPEG-4 AVC ~4 600 kbps avg
Аудио#1: 48.0 kHz, AC3 Dolby Digital, 3/2 (L,C,R,l,r) + LFE ch, ~384 kbps | RUS
Аудио#2: 48.0 kHz, AC3 Dolby Digital, 3/2 (L,C,R,l,r) + LFE ch, ~384 kbps | ENG
скриншот  скриншот  скриншот  скриншот  скриншот  

Общее
Уникальный идентификатор : 119846680622001787122766334450884390393 (0x5A29A18F694A829378DAFCA7F0A3ADF9)
Полное имя : D:\Pobeditel.2019.WEB-DL.1080p.mkv
Формат : Matroska
Версия формата : Version 4 / Version 2
Размер файла : 4,40 Гбайт
Продолжительность : 1 ч. 59 м.
Общий поток : 5286 Кбит/сек
Дата кодирования : UTC 2019-11-24 20:40:02
Программа кодирования : mkvmerge v38.0.0 ('The Silent Type') 64-bit
Библиотека кодирования : libebml v1.3.9 + libmatroska v1.5.2

Видео
Идентификатор : 1
Формат : AVC
Формат/Информация : Advanced Video Codec
Профиль формата : High@L4
Параметр CABAC формата : Да
Параметр RefFrames формата : 5 кадров
Идентификатор кодека : V_MPEG4/ISO/AVC
Продолжительность : 1 ч. 59 м.
Битрейт : 4600 Кбит/сек
Ширина : 1920 пикселей
Высота : 796 пикселей
Соотношение сторон : 2,40:1
Режим частоты кадров : Постоянный
Частота кадров : 23,976 (24000/1001) кадра/сек
Цветовое пространство : YUV
Субдискретизация насыщенности : 4:2:0
Битовая глубина : 8 бит
Тип развёртки : Прогрессивная
Бит/(Пиксели*Кадры) : 0.120
Размер потока : 3,67 Гбайт (83%)
Язык : English
Default : Да
Forced : Нет
Цветовой диапазон : Limited
Основные цвета : BT.709
Характеристики трансфера : BT.709
Коэффициенты матрицы : BT.709

Аудио #1
Идентификатор : 2
Формат : AC-3
Формат/Информация : Audio Coding 3
Расширение режима : CM (complete main)
Параметр Endianness формата : Big
Идентификатор кодека : A_AC3
Продолжительность : 1 ч. 59 м.
Вид битрейта : Постоянный
Битрейт : 384 Кбит/сек
Каналы : 6 каналов
Расположение каналов : Front: L C R, Side: L R, LFE
Частота : 48,0 КГц
Частота кадров : 31,250 кадров/сек (1536 spf)
Метод сжатия : С потерями
Задержка видео : -43 мс.
Размер потока : 327 Мбайт (7%)
Язык : Russian
Default : Да
Forced : Нет

Аудио #2
Идентификатор : 3
Формат : AC-3
Формат/Информация : Audio Coding 3
Расширение режима : CM (complete main)
Параметр Endianness формата : Big
Идентификатор кодека : A_AC3
Продолжительность : 1 ч. 59 м.
Вид битрейта : Постоянный
Битрейт : 384 Кбит/сек
Каналы : 6 каналов
Расположение каналов : Front: L C R, Side: L R, LFE
Частота : 48,0 КГц
Частота кадров : 31,250 кадров/сек (1536 spf)
Метод сжатия : С потерями
Задержка видео : -43 мс.
Размер потока : 327 Мбайт (7%)
Язык : English
Default : Нет
Forced : Нет

Текст #1
Идентификатор : 4
Формат : UTF-8
Идентификатор кодека : S_TEXT/UTF8
Идентификатор кодека/Информация : UTF-8 Plain Text
Язык : Russian
Default : Нет
Forced : Нет

Текст #2
Идентификатор : 5
Формат : UTF-8
Идентификатор кодека : S_TEXT/UTF8
Идентификатор кодека/Информация : UTF-8 Plain Text
Язык : English
Default : Нет
Forced : Нет

Меню
00:00:00.000 : en:1
00:05:07.849 : en:2
00:13:24.261 : en:3
00:18:08.627 : en:4
00:26:09.148 : en:5
00:32:39.662 : en:6
00:40:04.314 : en:7
00:46:08.594 : en:8
00:52:47.409 : en:9
00:59:33.981 : en:10
01:08:03.073 : en:11
01:14:53.942 : en:12
01:23:58.319 : en:13
01:33:08.326 : en:14
01:44:12.739 : en:15
01:51:15.160 : en:16

pb.wtf



Скачать Победитель через торрент https://c.radikal.ru/c22/1911/d8/dd88973fd34f.jpg Скачать фильм Победитель через торрент бесплантно в хорошем качестве Описание: Жизнь тренера Джона Харрисона резко меняется, когда его школьная баскетбольная команда и мечты о чемпионате штата неожиданно ... 10 10 4
Торрент: Зарегистрирован [2019-11-24 21:37] · скачан: 73 раз
Статус: √ проверено
Размер: 4.4 GB
Как cкачать? Как скачать Победитель через торрент | qTorrent

% Раздел Тема Автор DL S | L
Фильмы 2019-2020 [DVDrip, WEB-DLRip, HDrip] (DUB, MVO) [ 1.46 GB ] Победитель / Overcomer [2019 BDRip] MVO [] Twi7ter Скачать
5 | 0
Фильмы 2019-2020 [DVDrip, WEB-DLRip, HDrip] (DUB, MVO) [ 2.18 GB ] Победитель / Overcomer [2019 BDRip] MVO [] Twi7ter Скачать
1 | 3
Фильмы (Blu-ray, BD-Remux, HDDVD) [ 44.94 GB ] Победитель / Overcomer [2019 Blu-Ray EUR 1080p] MVO [] bober100 Скачать
1 | 0
Фильмы 2019-2020 [DVDrip, WEB-DLRip, HDrip] (DUB, MVO) [ 1.79 GB ] Победитель / Overcomer [2019 BDRip-AVC] bober100 Скачать
1 | 0
Фильмы (Blu-ray, BD-Remux, HDDVD) [ 22.91 GB ] Победитель / Overcomer [2019 BD Remux 1080p] MVO bober100 Скачать
1 | 0
T Фильмы [HD 720p, 1080p] (Хороший звук DUB, MVO) [ 9.07 GB ] Победитель / Overcomer [2019 BDRip 1080p] MVO bober100 Скачать
1 | 0
Фильмы 2019-2020 [DVDrip, WEB-DLRip, HDrip] (DUB, MVO) [ 2.13 GB ] Победитель / Overcomer [2019 BDRip] MVO bober100 Скачать
1 | 0

28-11-2019 20:33  

Отключить всю рекламу на сайте

    Дорогой пользователь! Огромная просьба, поблагодарите релизера, оцените раздачу и оставьте свои комментарий, если Вы скачали Победитель через торрент бесплатно! Внесите свою лепту в развитие PiratBit!
    Комментировать посты могут только пользователи прошедшие не сложную регистрацию
    Показать сообщения:    

    Победитель через торрент
    Скачать бесплатно Победитель
    Победитель скачать торрент
    Победитель смотреть онлайн
    Cкачать фильм Победитель бесплатно
    Победитель скачать торрент в хорошем качестве
    Победитель смотреть онлайн бесплатно в хорошем качестве


    Вы не можете начинать темы
    Вы не можете отвечать на сообщения
    Вы не можете редактировать свои сообщения
    Вы не можете удалять свои сообщения
    Вы не можете голосовать в опросах
    Вы не можете прикреплять файлы к сообщениям
    Вы можете скачивать файлы