Ссылка на приватное зеркало всего за 1$. Внимание количество ограничено!!!

OK

1+1

iTunes

мы

OK

1

WEB-DLRip

Джокер

Пифагор

Ведьмак / The Witcher сериал

Лицензия

ПШазам

ОК

Оно 2

iTunes

30
pack

Вам бонус

ВАЖНО

!!Акция!!

Alien_RageХит недели

RePack

Resident Evil 21

ИГРА 18+

pack

RePack

jed

RePack

fifa19

RePack

Assassins Creed: Odyssey

RePack

NEED FOR SPEED™ PAYBACK

4 сезон

9 сезон

Бесстыжие 9 сезон

Все сериалы

все сериалы на PB.wtf

RePack

FAR CRY 5
  

Красный лотос / Krasniy lotos (Заза Буадзе) [2009 г., драма, криминал, DVDRip-AVC] - ExKinoRay pb.wtf

Красный лотос через торрент pb.wtf

Раздают: 2 [ 0 KB/s ]
Размер: 1.94 GB | Добавлен: 1 мес. 22 д. назад | Торрент скачан:5 раз
Скачать  

01-12-2019 21:58 Красный лотос Скачать торрент  

Оригинальное название: Красный лотос
Год выхода: 2009
Жанр: Криминальная, драма
Режиссер: Максим Бернадский
В ролях: Михаил Мамаев, Елена Полякова, Наталья Лесниковская, Владимир Капустин, Виталина Библив, Георгий Хостикоев
Выпущено: Украина, Fresh Production UA
Продолжительность: 01:25:24
Язык: Русский

Описание:
Провинциальный город сотрясает страшное известие. Застрелен успешный бизнесмен и медицинское светило, один из самых влиятельных людей в округе. Выводы следствия: это дело рук женщины, имя которой однажды фигурировало в скандальной истории, связанной с убитым.



Формат: MKV
Качество: DVDRip-AVC
Видео: MPEG-4 AVC, 716x568@1018x568 (16:9), 25.000 fps,~ 2804 Kbps, 0.276 bit/pixel
Аудио: 48 kHz, AC3, 2.0 (L,R) ch, 448 Kbps | RUS |
General
Unique ID : 239871579775944423583344433991940922133 (0xB47595F8F1082738B27A1E61E1515B15)
Complete name : D:\Красный.лотос..2009.DVDRip.AVC.ExKinoRay.mkv
Format : Matroska
Format version : Version 2
File size : 1.94 GiB
Duration : 1 h 25 min
Overall bit rate : 3 254 kb/s
Movie name : Красный лотос 2009 from ExKinoRay
Encoded date : UTC 2019-05-14 22:36:18
Writing application : mkvmerge v5.6.0 ('Kenya Kane') built on May 27 2012 16:44:04
Writing library : libebml v1.2.3 + libmatroska v1.3.0

Video
ID : 1
Format : AVC
Format/Info : Advanced Video Codec
Format profile : High@L4.1
Format settings, CABAC : Yes
Format settings, ReFrames : 12 frames
Codec ID : V_MPEG4/ISO/AVC
Duration : 1 h 25 min
Bit rate : 2 804 kb/s
Width : 716 pixels
Height : 568 pixels
Display aspect ratio : 16:9
Original display aspect ratio : 16:9
Frame rate mode : Constant
Frame rate : 25.000 FPS
Color space : YUV
Chroma subsampling : 4:2:0
Bit depth : 8 bits
Scan type : Progressive
Bits/(Pixel*Frame) : 0.276
Stream size : 1.64 GiB (84%)
Title : Enigma
Writing library : x264 core 152 r2851 ba24899
Encoding settings : cabac=1 / ref=12 / deblock=1:-2:-2 / analyse=0x3:0x113 / me=umh / subme=10 / psy=1 / psy_rd=1.03:0.06 / mixed_ref=1 / me_range=32 / chroma_me=1 / trellis=2 / 8x8dct=1 / cqm=0 / deadzone=21,11 / fast_pskip=0 / chroma_qp_offset=-3 / threads=12 / lookahead_threads=2 / sliced_threads=0 / nr=0 / decimate=0 / interlaced=0 / bluray_compat=0 / constrained_intra=0 / bframes=9 / b_pyramid=2 / b_adapt=2 / b_bias=0 / direct=3 / weightb=1 / open_gop=0 / weightp=2 / keyint=240 / keyint_min=24 / scenecut=40 / intra_refresh=0 / rc=2pass / mbtree=0 / bitrate=2804 / ratetol=1.0 / qcomp=0.60 / qpmin=0 / qpmax=51 / qpstep=4 / cplxblur=20.0 / qblur=0.5 / ip_ratio=1.30 / pb_ratio=1.20 / aq=1:1.00
Language : English
Default : Yes
Forced : No
Color range : Limited
Color primaries : BT.601 PAL
Transfer characteristics : BT.470 System B, BT.470 System G
Matrix coefficients : BT.601

Audio
ID : 2
Format : AC-3
Format/Info : Audio Coding 3
Mode extension : CM (complete main)
Format settings, Endianness : Big
Codec ID : A_AC3
Duration : 1 h 25 min
Bit rate mode : Constant
Bit rate : 448 kb/s
Channel(s) : 2 channels
Channel positions : Front: L R
Sampling rate : 48.0 kHz
Frame rate : 31.250 FPS (1536 spf)
Compression mode : Lossy
Stream size : 274 MiB (14%)
Language : Russian
Default : Yes
Forced : No

Menu
00:00:00.000 : :Chapter 01
00:04:59.840 : :Chapter 02
00:09:59.920 : :Chapter 03
00:15:00.240 : :Chapter 04
00:20:00.200 : :Chapter 05
00:25:00.120 : :Chapter 06
00:29:59.840 : :Chapter 07
00:35:00.080 : :Chapter 08
00:40:00.000 : :Chapter 09
00:45:00.280 : :Chapter 10
00:49:59.720 : :Chapter 11
00:55:00.080 : :Chapter 12
00:59:59.920 : :Chapter 13
01:04:59.720 : :Chapter 14
01:09:59.760 : :Chapter 15
01:14:59.920 : :Chapter 16
01:20:00.160 : :Chapter 17
01:24:59.800 : :Chapter 18


Релиз от:

Автор релиза: pb.wtf



Скачать Красный лотос через торрент https://a.radikal.ru/a01/1912/18/c87f561d0906.jpg Скачать фильм Красный лотос через торрент бесплантно в хорошем качестве Описание:Провинциальный город сотрясает страшное известие. Застрелен успешный бизнесмен и медицинское светило, один из самых влиятельных ... 5 10 1
Info! Золотая раздача, скачанное не засчитывается.
Торрент: Зарегистрирован [2019-12-01 21:58] · скачан: 5 раз
Статус: √ проверено
Размер: 1.94 GB
Как cкачать? Как скачать Красный лотос через торрент | qTorrent

28-11-2019 20:33  

Отключить всю рекламу на сайте

    Дорогой пользователь! Огромная просьба, поблагодарите релизера, оцените раздачу и оставьте свои комментарий, если Вы скачали Красный лотос через торрент бесплатно! Внесите свою лепту в развитие PiratBit!
    Комментировать посты могут только пользователи прошедшие не сложную регистрацию
    Показать сообщения:    

    Красный лотос через торрент
    Скачать бесплатно Красный лотос
    Красный лотос скачать торрент
    Красный лотос смотреть онлайн
    Cкачать фильм Красный лотос бесплатно
    Красный лотос скачать торрент в хорошем качестве
    Красный лотос смотреть онлайн бесплатно в хорошем качестве


    Вы не можете начинать темы
    Вы не можете отвечать на сообщения
    Вы не можете редактировать свои сообщения
    Вы не можете удалять свои сообщения
    Вы не можете голосовать в опросах
    Вы не можете прикреплять файлы к сообщениям
    Вы можете скачивать файлы