Marvel's Avengers Deluxe Edition (супер цена) 159р. Внимание количество ограничено!!!

2 сезон

iTunes

iTunes

1

iTunes

iTunes

iTunes

WEBRip

iTunes

30
pack

Новость дня

ВАЖНО

!!Акция!!

Alien_RageХит недели

RePack

Horizon Zero Dawn

ИГРА 18+

pack

RePack

jed

!!Акция!!

Alien_Rage

RePack

fifa19

RePack

Assassins Creed: Odyssey

RePack

NEED FOR SPEED™ PAYBACK

4 сезон

9 сезон

Бесстыжие 9 сезон

Все сериалы

все сериалы на PB.wtf

RePack

FAR CRY 5
  

Битва Суперзвезд: Шона Грант против Эмбер Линн / Battle Of The Superstars: Shauna Grant vs Amber Lynn (Caballero Video) [2009 г., Classic Sex, Compilations, DVDRip, Оригинал] pb.wtf

Битва Суперзвезд: Шона Грант против Эмбер Линн через торрент pb.wtf

Раздают: 1 [ 4 KB/s ]
Размер: 1.08 GB | Добавлен: 9 мес. назад | Торрент скачан:114 раз
Скачать  

04-12-2019 09:55 Битва Суперзвезд: Шона Грант против Эмбер Линн Скачать торрент  

Битва Суперзвезд: Шона Грант против Эмбер Линн / Battle Of The Superstars: Shauna Grant vs Amber Lynn
Год выпуска: 2009
Страна: США
Жанр: Classic Sex, Compilations
Продолжительность: 01:31:33
Перевод: оригинал (английский)
Субтитры: отсутствуют

Режиссер: Caballero Video
В ролях: Amber Lynn, Shauna Grant, Ron Jeremy, Tom Byron

Описание: Who's the hottest, most erotic sex stars in porn now you'll find out. You will be the judge, you'll decide! The most famous porn stars compete in one on one competitions, performing the sex acts that made them famous, made them notorious blow jobs, anal fucking, gang bangs, they do them all competing for your vote!
Кто самый горячий, самый эротический секс звезды в порно теперь вы узнаете. Вы будете судьей, вы будете решать! Самые известные порнозвезды соревнуются в соревнованиях один на один, выполняя половые акты, которые сделали их знаменитыми, сделали их пресловутыми минетами, анальным трахом, групповухой, они делают их все, конкурируя за Ваш голос!

Качество: DVDRip
Формат: AVI
Видео кодек: XviD
Аудио кодек: MP3
Видео: 720x480 (3:2), 25 fps ~ 1558 Kbps
Аудио: 44.1 KHz, 2 ch ~ 121 Kb/s (английский)

Общее
Полное имя : G:\wot\Battle Of Superstars Shauna Grant Vs. Amber Lynn (1980's).avi
Формат : AVI
Формат/Информация : Audio Video Interleave
Профиль формата : OpenDML
Размер файла : 1,08 Гбайт
Продолжительность : 1 ч. 31 м.
Общий поток : 1695 Кбит/сек
Программа кодирования : MEncoder Sherpya-SVN-r32492-4.2.5
Библиотека кодирования : MPlayer

Видео
Идентификатор : 0
Формат : MPEG-4 Visual
Идентификатор кодека : XVID
Идентификатор кодека/Подсказка : XviD
Продолжительность : 1 ч. 31 м.
Битрейт : 1558 Кбит/сек
Ширина : 720 пикселей
Высота : 480 пикселей
Соотношение сторон : 3:2
Частота кадров : 25,000 кадров/сек
Стандарт вещания : NTSC
Цветовое пространство : YUV
Субдискретизация насыщенности : 4:2:0
Метод сжатия : С потерями
Бит/(Пиксели*Кадры) : 0.180
Размер потока : 1020 Мбайт (92%)

Аудио
Идентификатор : 1
Формат : MPEG Audio
Идентификатор кодека : 55
Идентификатор кодека/Подсказка : MP3
Продолжительность : 1 ч. 31 м.
Битрейт : 121 Кбит/сек
Каналы : 2 канала
Частота : 44,1 КГц
Метод сжатия : С потерями
Размер потока : 751 Кбайт (0%)
Выравнивание : Соединение по промежуткам
Продолжительность промежутка : 2842 мс. (71,04 видеокадров)
Время предзагрузки промежутка : 484 мс.

pb.wtf



pack Скачать Битва Суперзвезд: Шона Грант против Эмбер Линн через торрент http://i111.fastpic.ru/big/2019/1204/b2/ebb6960cfb49f8b35baa41e51814f5b2.jpg Скачать фильм Битва Суперзвезд: Шона Грант против Эмбер Линн через торрент бесплантно в хорошем качестве Описание: Who's the hottest, most erotic sex stars in porn now you'll find out. You will be the judge, you'll decide! The most famous porn ... 8.3 10 4
Info! Золотая раздача, скачанное не засчитывается.
Торрент: Зарегистрирован [2019-12-04 09:55] · скачан: 114 раз
Статус: √ проверено
Размер: 1.08 GB
Как cкачать? Как скачать Битва Суперзвезд: Шона Грант против Эмбер Линн через торрент | qTorrent

28-11-2019 20:33  

Отключить всю рекламу на сайте

04-12-2019 12:12 Битва Суперзвезд: Шона Грант против Эмбер Линн Скачать торрент  

Топик был перенесен из форума Порно-ролики в форум Порно фильмы с сюжетом


Леонид Ильичpb.wtf



pack
    Дорогой пользователь! Огромная просьба, поблагодарите релизера, оцените раздачу и оставьте свои комментарий, если Вы скачали Битва Суперзвезд: Шона Грант против Эмбер Линн через торрент бесплатно! Внесите свою лепту в развитие PiratBit!
    Комментировать посты могут только пользователи прошедшие не сложную регистрацию
    Показать сообщения:    

    Битва Суперзвезд: Шона Грант против Эмбер Линн через торрент
    Скачать бесплатно Битва Суперзвезд: Шона Грант против Эмбер Линн
    Битва Суперзвезд: Шона Грант против Эмбер Линн скачать торрент
    Битва Суперзвезд: Шона Грант против Эмбер Линн смотреть онлайн
    Cкачать фильм Битва Суперзвезд: Шона Грант против Эмбер Линн бесплатно
    Битва Суперзвезд: Шона Грант против Эмбер Линн скачать торрент в хорошем качестве
    Битва Суперзвезд: Шона Грант против Эмбер Линн смотреть онлайн бесплатно в хорошем качестве


    Вы не можете начинать темы
    Вы не можете отвечать на сообщения
    Вы не можете редактировать свои сообщения
    Вы не можете удалять свои сообщения
    Вы не можете голосовать в опросах
    Вы не можете прикреплять файлы к сообщениям
    Вы можете скачивать файлы