Ссылка на приватное зеркало всего за 1$. Внимание количество ограничено!!!

OK

1+1

iTunes

мы

OK

1

WEB-DLRip

Джокер

Пифагор

Ведьмак / The Witcher сериал

iTunes

ПШазам

ОК

Оно 2

iTunes

30
pack

Вам бонус

ВАЖНО

!!Акция!!

Alien_RageХит недели

RePack

Resident Evil 21

ИГРА 18+

pack

RePack

jed

RePack

fifa19

RePack

Assassins Creed: Odyssey

RePack

NEED FOR SPEED™ PAYBACK

4 сезон

9 сезон

Бесстыжие 9 сезон

Все сериалы

все сериалы на PB.wtf

RePack

FAR CRY 5
  

Проклятие крови / Blood Craft (Джеймс Каллен Брэссак) [2019, Ужасы, триллер, WEB-DL 1080p] MVO [iTunes] pb.wtf

Проклятие крови через торрент pb.wtf

Размер: 3.69 GB | Добавлен: 1 мес. 19 д. назад | Торрент скачан:61 раз
Скачать  

06-12-2019 15:40 Проклятие крови Скачать торрент  

Проклятие крови / Blood Craft
Год выпуска: 2019
Страна: США
Жанр: Ужасы, триллер
Продолжительность: 01:35:34
Перевод: Профессиональный многоголосый | iTunes
Субтитры: отсутствуют

Режиссер: Джеймс Каллен Брэссак

rating

В ролях: Мадлен Уэйд, Оджи Дьюк, Майкл Уэлш, Дэйв Шеридан, Марк Ролстон, Доминик Суэйн, Джоди Бартон, Гордон Брэссак, Джеймс Каллен Брэссак, Сэйдж Корреа

Описание: Две сестры, страдавшие в детстве от жестокого обращения своего садиста-отца, решают после его смерти прибегнуть к колдовству, для того чтобы вызвать его дух и отомстить.

Качество: WEB-DL 1080p
Формат: MKV

Видео: MPEG-4 AVC, 5136 Кбит/с, 1920x1080
Аудио: 48 kHz, AC3 Dolby Digital, 3/2 (L,C,R,l,r) + LFE ch, ~384 kbps
скриншот  скриншот  скриншот  скриншот  

General
Unique ID : 252196053062038199083652341604937062985 (0xBDBB316B6310A0D9B68FE9386C475A49)
Complete name : Proklyatie.krovi.2019.WEB-DL.1080p.ELEKTRI4KA.UNIONGANG.mkv
Format : Matroska
Format version : Version 4
File size : 3.69 GiB
Duration : 1 h 35 min
Overall bit rate : 5 522 kb/s
Encoded date : UTC 2019-12-05 19:33:24
Writing application : mkvmerge v8.3.0 ('Over the Horizon') 64bit
Writing library : libebml v1.3.1 + libmatroska v1.4.2

Video
ID : 1
Format : AVC
Format/Info : Advanced Video Codec
Format profile : High@L4
Format settings : CABAC / 4 Ref Frames
Format settings, CABAC : Yes
Format settings, Reference frames : 4 frames
Codec ID : V_MPEG4/ISO/AVC
Duration : 1 h 35 min
Bit rate : 5 136 kb/s
Width : 1 920 pixels
Height : 1 080 pixels
Display aspect ratio : 16:9
Frame rate mode : Constant
Frame rate : 24.000 FPS
Color space : YUV
Chroma subsampling : 4:2:0
Bit depth : 8 bits
Scan type : Progressive
Bits/(Pixel*Frame) : 0.103
Stream size : 3.43 GiB (93%)
Title : itunes.ELEKTRI4KA.UNIONGANG
Language : English
Default : Yes
Forced : No
Color range : Limited
Color primaries : BT.709
Transfer characteristics : BT.709
Matrix coefficients : BT.709

Audio
ID : 2
Format : AC-3
Format/Info : Audio Coding 3
Commercial name : Dolby Digital
Codec ID : A_AC3
Duration : 1 h 35 min
Bit rate mode : Constant
Bit rate : 384 kb/s
Channel(s) : 6 channels
Channel layout : L R C LFE Ls Rs
Sampling rate : 48.0 kHz
Frame rate : 31.250 FPS (1536 SPF)
Bit depth : 16 bits
Compression mode : Lossy
Stream size : 262 MiB (7%)
Title : itunes.ELEKTRI4KA.UNIONGANG
Language : Russian
Service kind : Complete Main
Default : Yes
Forced : No

Menu
00:00:00.000 : en:Глава 1
00:08:26.000 : en:Глава 2
00:16:33.875 : en:Глава 3
00:24:39.875 : en:Глава 4
00:33:24.000 : en:Глава 5
00:41:30.125 : en:Глава 6
00:49:57.666 : en:Глава 7
00:57:58.582 : en:Глава 8
01:06:21.165 : en:Глава 9
01:14:57.540 : en:Глава 10
01:23:38.997 : en:Глава 11

pb.wtf



Скачать Проклятие крови через торрент https://i6.imageban.ru/out/2019/12/05/0c32ddb63a284d376f9d404305c14cd7.png Скачать фильм Проклятие крови через торрент бесплантно в хорошем качестве Описание: Две сестры, страдавшие в детстве от жестокого обращения своего садиста-отца, решают после его смерти прибегнуть к колдовству, для ... 10 10 6
Торрент: Зарегистрирован [2019-12-06 15:40] · скачан: 61 раз
Статус: √ проверено
Размер: 3.69 GB
Как cкачать? Как скачать Проклятие крови через торрент | qTorrent

% Раздел Тема Автор DL S | L
Фильмы 2019-2020 [DVDrip, WEB-DLRip, HDrip] (DUB, MVO) [ 1.46 GB ] Проклятие крови / Blood Craft [2019 WEB-DLRip] MVO bober100 Скачать
5 | 0
Фильмы (WEB-DL 720p, 1080p) [ 3.01 GB ] Проклятие крови / Blood Craft [2019 WEB-DL 720p] MVO bober100 Скачать
1 | 0

28-11-2019 20:33  

Отключить всю рекламу на сайте

    Дорогой пользователь! Огромная просьба, поблагодарите релизера, оцените раздачу и оставьте свои комментарий, если Вы скачали Проклятие крови через торрент бесплатно! Внесите свою лепту в развитие PiratBit!
    Комментировать посты могут только пользователи прошедшие не сложную регистрацию
    Показать сообщения:    

    Проклятие крови через торрент
    Скачать бесплатно Проклятие крови
    Проклятие крови скачать торрент
    Проклятие крови смотреть онлайн
    Cкачать фильм Проклятие крови бесплатно
    Проклятие крови скачать торрент в хорошем качестве
    Проклятие крови смотреть онлайн бесплатно в хорошем качестве


    Вы не можете начинать темы
    Вы не можете отвечать на сообщения
    Вы не можете редактировать свои сообщения
    Вы не можете удалять свои сообщения
    Вы не можете голосовать в опросах
    Вы не можете прикреплять файлы к сообщениям
    Вы можете скачивать файлы