Ссылка на приватное зеркало всего за 1$. Внимание количество ограничено!!!

OK

1+1

iTunes

мы

OK

1

WEB-DLRip

Джокер

Пифагор

Ведьмак / The Witcher сериал

Лицензия

ПШазам

ОК

Оно 2

iTunes

30
pack

Вам бонус

ВАЖНО

!!Акция!!

Alien_RageХит недели

RePack

Resident Evil 21

ИГРА 18+

pack

RePack

jed

RePack

fifa19

RePack

Assassins Creed: Odyssey

RePack

NEED FOR SPEED™ PAYBACK

4 сезон

9 сезон

Бесстыжие 9 сезон

Все сериалы

все сериалы на PB.wtf

RePack

FAR CRY 5
  

К звёздам / Ad Astra (Джеймс Грэй) [2019, фантастика, триллер, драма, детектив, приключения, WEB-DL 1080p] [AMAZON Version] DUB (rus, ukr) [iTunes] pb.wtf

К звёздам через торрент pb.wtf

Раздают: 8 [ 266 KB/s ]
Размер: 8.22 GB | Добавлен: 1 мес. 17 д. назад | Торрент скачан:206 раз
Скачать  

03-12-2019 09:26 К звёздам Скачать торрент  

К звёздам / Ad Astra
Год выпуска: 2019
Страна: США, Китай, Бразилия
Студия: New Regency Pictures, Bona Film Group, Keep Your Head
Жанр: фантастика, триллер, драма, детектив, приключения
Продолжительность: 02:03:03
Перевод: Дублированный | iTunes
Субтитры: Русские (Forced, full), украинские (Forced, full), английские

Режиссер: Джеймс Грэй

rating

В ролях:

Брэд Питт (Roy McBride), Томми Ли Джонс (H. Clifford McBride), Рут Негга (Helen Lantos), Дональд Сазерленд (Thomas Pruitt), Кимберли Элиз (Lorraine Deavers), Лорен Дин (Donald Stanford), Донни Кешаварц (Captain Lawrence Tanner), Шон Блейкмор (Willie Levant), Бобби Ниш (Franklin Yoshida), Лиза Гэй Хэмилтон (Adjutant General Vogel), Джон Финн (Brigadier General Stroud), Джон Ортис (Lieutenant General Rivas)
Описание: Недалёкое будущее. Несколько лет назад человечество запустило программу поиска внеземной жизни «Проект «Лима»», во главе которой стоял капитан Клиффорд Макбрайд. Последний сигнал экспедиции был зафиксирован в районе Нептуна, и с тех пор о её судьбе ничего не было известно. Сам капитан Макбрайд стал героем и самым известным космонавтом, вдохновившим многих на исследование космоса. Через 16 лет после исчезновения «Проекта «Лима»» на Земле начинают происходить странные вспышки энергии, выводящие из строя электросистемы и сеящие хаос и разрушения. По данным американского космического агентства сигнал идёт с Нептуна, и теперь сыну знаменитого космонавта, майору Рою Макбрайду, поручается ответственная миссия. Он должен добраться до марсианской базы и оттуда попытаться связаться с предположительно живым отцом.

Качество: WEB-DL 1080p | AMAZON Version
Формат: MKV

Видео: MPEG-4 AVC, 1920x800, 8415 Kbit/s, 23.976 fps
Аудио #01: 48 kHz, AC3, 5.1, 384 Kbps | iTunes | RUS |
Аудио #02: 48 kHz, AAC, 2.0, 123 Kbps | iTunes | UKR |
Аудио #03: 48 kHz, E-AC3, 5.1, 640 Kbps | Оригинал | ENG |
скриншот  скриншот  скриншот  скриншот  скриншот  

General
Unique ID : 14471261330488640052757008934742768929 (0xAE3104501788919686CB05F4F73BD21)
Complete name : F:Video111Ad.Astra.2019.AMZN.WEB-DL.1080p.seleZen.mkv
Format : Matroska
Format version : Version 4
File size : 8.22 GiB
Duration : 2 h 3 min
Overall bit rate : 9 562 kb/s
Movie name : Ad Astra 2019 from селезень
Encoded date : UTC 2019-12-05 19:53:33
Writing application : mkvmerge v40.0.0 ('Old Town Road + Pony') 64-bit
Writing library : libebml v1.3.9 + libmatroska v1.5.2

Video
ID : 1
Format : AVC
Format/Info : Advanced Video Codec
Format profile : High@L4
Format settings : CABAC / 4 Ref Frames
Format settings, CABAC : Yes
Format settings, Reference : 4 frames
Codec ID : V_MPEG4/ISO/AVC
Duration : 2 h 3 min
Bit rate mode : Constant
Bit rate : 8 415 kb/s
Nominal bit rate : 10 000 kb/s
Width : 1 920 pixels
Height : 800 pixels
Display aspect ratio : 2.40:1
Frame rate mode : Constant
Frame rate : 23.976 (24000/1001) FPS
Color space : YUV
Chroma subsampling : 4:2:0
Bit depth : 8 bits
Scan type : Progressive
Bits/(Pixel*Frame) : 0.228
Stream size : 7.23 GiB (88%)
Language : English
Default : Yes
Forced : No
Color range : Limited
Color primaries : BT.709
Transfer characteristics : BT.709
Matrix coefficients : BT.709

Audio #1
ID : 2
Format : AC-3
Format/Info : Audio Coding 3
Commercial name : Dolby Digital
Codec ID : A_AC3
Duration : 2 h 3 min
Bit rate mode : Constant
Bit rate : 384 kb/s
Channel(s) : 6 channels
Channel layout : L R C LFE Ls Rs
Sampling rate : 48.0 kHz
Frame rate : 31.250 FPS (1536 SPF)
Bit depth : 16 bits
Compression mode : Lossy
Stream size : 338 MiB (4%)
Title : iTunes
Language : Russian
Service kind : Complete Main
Default : Yes
Forced : Yes

Audio #2
ID : 3
Format : AAC LC
Format/Info : Advanced Audio Codec Low Complexity
Codec ID : A_AAC-2
Duration : 2 h 3 min
Bit rate : 123 kb/s
Channel(s) : 2 channels
Channel layout : L R
Sampling rate : 44.1 kHz
Frame rate : 43.066 FPS (1024 SPF)
Compression mode : Lossy
Stream size : 108 MiB (1%)
Title : iTunes
Language : Ukrainian
Default : No
Forced : No

Audio #3
ID : 4
Format : E-AC-3
Format/Info : Enhanced AC-3
Commercial name : Dolby Digital Plus
Codec ID : A_EAC3
Duration : 2 h 3 min
Bit rate mode : Constant
Bit rate : 640 kb/s
Channel(s) : 6 channels
Channel layout : L R C LFE Ls Rs
Sampling rate : 48.0 kHz
Frame rate : 31.250 FPS (1536 SPF)
Compression mode : Lossy
Stream size : 563 MiB (7%)
Title : Original
Language : English
Service kind : Complete Main
Default : No
Forced : No

Text #1
ID : 5
Format : UTF-8
Codec ID : S_TEXT/UTF8
Codec ID/Info : UTF-8 Plain Text
Duration : 2 h 2 min
Bit rate : 1 b/s
Count of elements : 22
Stream size : 941 Bytes (0%)
Title : Forced
Language : Russian
Default : Yes
Forced : Yes

Text #2
ID : 6
Format : UTF-8
Codec ID : S_TEXT/UTF8
Codec ID/Info : UTF-8 Plain Text
Duration : 2 h 2 min
Bit rate : 68 b/s
Count of elements : 1074
Stream size : 61.6 KiB (0%)
Title : Full
Language : Russian
Default : No
Forced : No

Text #3
ID : 7
Format : UTF-8
Codec ID : S_TEXT/UTF8
Codec ID/Info : UTF-8 Plain Text
Duration : 2 h 2 min
Bit rate : 1 b/s
Count of elements : 27
Stream size : 1.17 KiB (0%)
Title : Forced
Language : Ukrainian
Default : No
Forced : No

Text #4
ID : 8
Format : UTF-8
Codec ID : S_TEXT/UTF8
Codec ID/Info : UTF-8 Plain Text
Duration : 2 h 2 min
Bit rate : 68 b/s
Count of elements : 1082
Stream size : 61.3 KiB (0%)
Title : Full
Language : Ukrainian
Default : No
Forced : No

Text #5
ID : 9
Format : UTF-8
Codec ID : S_TEXT/UTF8
Codec ID/Info : UTF-8 Plain Text
Duration : 2 h 0 min
Bit rate : 43 b/s
Count of elements : 1261
Stream size : 38.7 KiB (0%)
Title : Full
Language : English
Default : No
Forced : No

Text #6
ID : 10
Format : UTF-8
Codec ID : S_TEXT/UTF8
Codec ID/Info : UTF-8 Plain Text
Duration : 2 h 0 min
Bit rate : 46 b/s
Count of elements : 1396
Stream size : 41.3 KiB (0%)
Title : SDH
Language : English
Default : No
Forced : No

pb.wtf



Скачать К звёздам через торрент https://img15.lostpic.net/2019/12/05/f8ab70b8f4b0d907302e23cc7dade9fc.jpg Скачать фильм К звёздам через торрент бесплантно в хорошем качестве Описание: Недалёкое будущее. Несколько лет назад человечество запустило программу поиска внеземной жизни «Проект «Лима»», во главе которой ... 9.6 10 31
Торрент: Зарегистрирован [2019-12-05 19:59] · скачан: 206 раз
Статус: √ проверено
Размер: 8.22 GB
Как cкачать? Как скачать К звёздам через торрент | qTorrent

% Раздел Тема Автор DL S | L
Фильмы 2019-2020 [DVDrip, WEB-DLRip, HDrip] (DUB, MVO) [ 1.86 GB ] К звёздам / Ad Astra [2019 WEB-DLRip-AVC] bober100 Скачать
25 | 0
Фильмы [HD 720p, 1080p] (Хороший звук DUB, MVO) [ 4.74 GB ] К звёздам / Ad Astra [2019 BDRip 720p] DUB bober100 Скачать
18 | 1
Фильмы 2019-2020 [DVDrip, WEB-DLRip, HDrip] (DUB, MVO) [ 752 MB ] К звёздам / Ad Astra [2019 BDRip] bober100 Скачать
3 | 0
Фильмы 2019-2020 [DVDrip, WEB-DLRip, HDrip] (DUB, MVO) [ 2.13 GB ] К звёздам / Ad Astra [2019 BDRip] - Twi7ter Скачать
280 | 10
Фильмы 2019-2020 [DVDrip, WEB-DLRip, HDrip] (DUB, MVO) [ 1.46 GB ] К звёздам / Ad Astra [2019 BDRip] - Twi7ter Скачать
307 | 19
Фильмы 2019-2020 [DVDrip, WEB-DLRip, HDrip] (DUB, MVO) [ 1.46 GB ] К звёздам / Ad Astra [2019 BDRip] bober100 Скачать
7 | 0
Фильмы 2019-2020 [DVDrip, WEB-DLRip, HDrip] (DUB, MVO) [ 2.13 GB ] К звёздам / Ad Astra [2019 BDRip] bober100 Скачать
13 | 0


Последний раз редактировалось: bober100 (2019-12-08 07:54), всего редактировалось 5 раз(а)

28-11-2019 20:33  

Отключить всю рекламу на сайте

06-12-2019 05:19 К звёздам Скачать торрент  

Я такого антинаучного и нудного бреда уже давно не видел pb.wtf



06-12-2019 20:45 К звёздам Скачать торрент  

начинал смотреть.пока отложил просмотр.что-то не айда пошел фильм.слишком скучновато как-то. pb.wtf



    Дорогой пользователь! Огромная просьба, поблагодарите релизера, оцените раздачу и оставьте свои комментарий, если Вы скачали К звёздам через торрент бесплатно! Внесите свою лепту в развитие PiratBit!
    Комментировать посты могут только пользователи прошедшие не сложную регистрацию
    Показать сообщения:    

    К звёздам через торрент
    Скачать бесплатно К звёздам
    К звёздам скачать торрент
    К звёздам смотреть онлайн
    Cкачать фильм К звёздам бесплатно
    К звёздам скачать торрент в хорошем качестве
    К звёздам смотреть онлайн бесплатно в хорошем качестве


    Вы не можете начинать темы
    Вы не можете отвечать на сообщения
    Вы не можете редактировать свои сообщения
    Вы не можете удалять свои сообщения
    Вы не можете голосовать в опросах
    Вы не можете прикреплять файлы к сообщениям
    Вы можете скачивать файлы