Ссылка на приватное зеркало всего за 1$. Внимание количество ограничено!!!

OK

1+1

iTunes

мы

OK

1

WEB-DLRip

Джокер

Пифагор

Ведьмак / The Witcher сериал

Лицензия

ПШазам

ОК

Оно 2

iTunes

30
pack

Вам бонус

ВАЖНО

!!Акция!!

Alien_RageХит недели

RePack

Resident Evil 21

ИГРА 18+

pack

RePack

jed

!!Акция!!

Alien_Rage

RePack

fifa19

RePack

Assassins Creed: Odyssey

RePack

NEED FOR SPEED™ PAYBACK

4 сезон

9 сезон

Бесстыжие 9 сезон

Все сериалы

все сериалы на PB.wtf

RePack

FAR CRY 5
  

В высокой траве / In the Tall Grass (Винченцо Натали) [2019, триллер, ужасы, драма, WEB-DL 1080p] MVO [HDRezka Studio] pb.wtf

В высокой траве через торрент pb.wtf

Раздают: 4 [ 5 KB/s ]
Размер: 6.17 GB | Добавлен: 1 мес. 9 д. назад | Торрент скачан:173 раза
Скачать  

08-12-2019 04:48 В высокой траве Скачать торрент  

В высокой траве / In the Tall Grass
Год выпуска: 2019
Страна: Канада
Студия: Copper Heart Entertainment, NetFlix
Жанр: триллер, ужасы, драма
Продолжительность: 01:41:54
Перевод: Профессиональный (многоголосый) | HDRezka Studio
Субтитры: Русский (Форс., Полные), Английский (Full, SDH)

Режиссер: Винченцо Натали

rating

В ролях: Лайсла Де Оливейра, Эйвери Уиттед, Патрик Уилсон, Уилл Бьюи мл., Харрисон Гилбертсон, Тиффани Хельм, Рэйчел Уилсон

Описание: Путешествующие по Америке Бекки и Кэл останавливаются возле поля высокой травы, привлеченные криками заблудившегося там ребенка. Поспешив ему на помощь, они очень быстро теряют друг друга из вида и вскоре понимают, что сами заблудились. Тогда дезориентированные и напуганные герои начинают осознавать, что оказались в плену некой зловещей силы, присутствие которой с каждой минутой ощущается всё отчётливее.

Качество: WEB-DL 1080p
Формат: MKV

Видео: AVC/H.264, 1920x1080, 7500 Кbps, 24 fps
Аудио#1: AC3, 6 ch, 448 Kbps - Русский
Аудио#2: E-AC3, 6 ch, 768 Kbps - Английский
скриншот  скриншот  скриншот  скриншот  

Общее
Уникальный идентификатор : 19502408840948825908061645303433236323 (0xEAC06FE46B3A1DDD2E832E749858F63)
Полное имя : In the Tall Grass.2019.WEB-DL.1080p.mkv
Формат : Matroska
Версия формата : Version 4
Размер файла : 6,17 Гбайт
Продолжительность : 1 ч. 41 м.
Режим общего битрейта : Переменный
Общий поток : 8662 Кбит/сек
Название фильма : In the Tall Grass.2019.WEB-DL.1080p
Дата кодирования : UTC 2019-12-07 22:28:45
Программа кодирования : mkvmerge v23.0.0 ('The Bride Said No') 64-bit
Библиотека кодирования : libebml v1.3.6 + libmatroska v1.4.9

Видео
Идентификатор : 1
Формат : AVC
Формат/Информация : Advanced Video Codec
Профиль формата : Main@L4
Настройки формата : CABAC / 3 Ref Frames
Параметр CABAC формата : Да
Параметр RefFrames формата : 3 кадра
Идентификатор кодека : V_MPEG4/ISO/AVC
Продолжительность : 1 ч. 41 м.
Вид битрейта : Переменный
Битрейт : 7500 Кбит/сек
Максимальный битрейт : 11,2 Мбит/сек
Ширина : 1920 пикселей
Высота : 1080 пикселей
Соотношение сторон : 16:9
Режим частоты кадров : Постоянный
Частота кадров : 24,000 кадра/сек
Цветовое пространство : YUV
Субдискретизация насыщенности : 4:2:0
Битовая глубина : 8 бит
Тип развёртки : Прогрессивная
Бит/(Пиксели*Кадры) : 0.151
Размер потока : 5,30 Гбайт (86%)
Библиотека кодирования : x264 core 148 r2715 7e75228
Настройки программы : cabac=1 / ref=3 / deblock=1:0:0 / analyse=0x1:0x111 / me=umh / subme=10 / psy=1 / psy_rd=1.00:0.00 / mixed_ref=1 / me_range=24 / chroma_me=1 / trellis=2 / 8x8dct=0 / cqm=0 / deadzone=21,11 / fast_pskip=1 / chroma_qp_offset=-2 / threads=8 / lookahead_threads=1 / sliced_threads=0 / nr=0 / decimate=1 / interlaced=0 / bluray_compat=0 / stitchable=1 / constrained_intra=0 / bframes=2 / b_pyramid=0 / b_adapt=2 / b_bias=0 / direct=3 / weightb=1 / open_gop=0 / weightp=2 / keyint=250 / keyint_min=24 / scenecut=0 / intra_refresh=0 / rc_lookahead=48 / rc=2pass / mbtree=1 / bitrate=7500 / ratetol=1.0 / qcomp=0.50 / qpmin=6 / qpmax=51 / qpstep=4 / cplxblur=20.0 / qblur=0.5 / vbv_maxrate=11250 / vbv_bufsize=15000 / nal_hrd=vbr / filler=0 / ip_ratio=1.40 / aq=1:1.00
Язык : English
Default : Да
Forced : Нет

Аудио #1
Идентификатор : 2
Формат : AC-3
Формат/Информация : Audio Coding 3
Коммерческое название : Dolby Digital
Идентификатор кодека : A_AC3
Продолжительность : 1 ч. 41 м.
Вид битрейта : Постоянный
Битрейт : 448 Кбит/сек
Каналы : 6 каналов
ChannelLayout : L R C LFE Ls Rs
Частота : 48,0 КГц
Частота кадров : 31,250 кадров/сек (1536 SPF)
Метод сжатия : С потерями
Размер потока : 327 Мбайт (5%)
Заголовок : MVO (HDRezka Studio)
Язык : Russian
ServiceKind : Complete Main
Default : Да
Forced : Нет

Аудио #2
Идентификатор : 3
Формат : E-AC-3 JOC
Формат/Информация : Enhanced AC-3 with Joint Object Coding
Коммерческое название : Dolby Digital Plus with Dolby Atmos
Идентификатор кодека : A_EAC3
Продолжительность : 1 ч. 41 м.
Вид битрейта : Постоянный
Битрейт : 768 Кбит/сек
Каналы : 6 каналов
ChannelLayout : L R C LFE Ls Rs
Частота : 48,0 КГц
Частота кадров : 31,250 кадров/сек (1536 SPF)
Метод сжатия : С потерями
Размер потока : 560 Мбайт (9%)
Язык : English
ServiceKind : Complete Main
Default : Нет
Forced : Нет
ComplexityIndex : 16
NumberOfDynamicObjects : 15
BedChannelCount : 1 канал
BedChannelConfiguration : LFE

Текст #1
Идентификатор : 4
Формат : UTF-8
Идентификатор кодека : S_TEXT/UTF8
Идентификатор кодека/Информация : UTF-8 Plain Text
Продолжительность : 13 м. 15 с.
Битрейт : 1 бит/сек
ElementCount : 6
Размер потока : 198 байт (0%)
Заголовок : Forced
Язык : Russian
Default : Да
Forced : Нет

Текст #2
Идентификатор : 5
Формат : UTF-8
Идентификатор кодека : S_TEXT/UTF8
Идентификатор кодека/Информация : UTF-8 Plain Text
Продолжительность : 1 ч. 39 м.
Битрейт : 55 бит/сек
ElementCount : 929
Размер потока : 40,3 Кбайт (0%)
Заголовок : Full
Язык : Russian
Default : Нет
Forced : Нет

Текст #3
Идентификатор : 6
Формат : UTF-8
Идентификатор кодека : S_TEXT/UTF8
Идентификатор кодека/Информация : UTF-8 Plain Text
Продолжительность : 1 ч. 37 м.
Битрейт : 42 бит/сек
ElementCount : 1258
Размер потока : 30,5 Кбайт (0%)
Заголовок : Full
Язык : English
Default : Нет
Forced : Нет

Текст #4
Идентификатор : 7
Формат : UTF-8
Идентификатор кодека : S_TEXT/UTF8
Идентификатор кодека/Информация : UTF-8 Plain Text
Продолжительность : 1 ч. 38 м.
Битрейт : 49 бит/сек
ElementCount : 1501
Размер потока : 35,9 Кбайт (0%)
Заголовок : SDH
Язык : English
Default : Нет
Forced : Нет

pb.wtf



Скачать В высокой траве через торрент http://c.radikal.ru/c41/1912/bc/6ca87791c446.jpg Скачать фильм В высокой траве через торрент бесплантно в хорошем качестве Описание: Путешествующие по Америке Бекки и Кэл останавливаются возле поля высокой травы, привлеченные криками заблудившегося там ребенка. ... 10 10 13
Торрент: Зарегистрирован [2019-12-08 04:48] · скачан: 173 раз
Статус: √ проверено
Размер: 6.17 GB
Как cкачать? Как скачать В высокой траве через торрент | qTorrent

% Раздел Тема Автор DL S | L
Фильмы 2019-2020 [DVDrip, WEB-DLRip, HDrip] (DUB, MVO) [ 2.05 GB ] В высокой траве / In the Tall Grass [2019 WEB-DLRip] MVO [HDRezka studio] bober100 Скачать
17 | 1
Фильмы 2019-2020 [DVDrip, WEB-DLRip, HDrip] (DUB, MVO) [ 746 MB ] В высокой траве / In the Tall Grass [2019 WEB-DLRip] MVO [HDRezka studio] bober100 Скачать
9 | 0
T Фильмы (мультфильмы) cо спонсором показа (Новинки AVI/MKV) [ 2.28 GB ] В высокой траве / In the Tall Grass [2019 ы WEBRip-AVC] MVO [HDRezka Studio] bober100 Скачать
8 | 0


Последний раз редактировалось: bober100 (2019-12-08 19:26), всего редактировалось 1 раз

28-11-2019 20:33  

Отключить всю рекламу на сайте

08-12-2019 09:01 В высокой траве Скачать торрент  

Не очень, про временные петли.pb.wtf



08-12-2019 11:54 В высокой траве Скачать торрент  

А мне понравился.pb.wtf



    Дорогой пользователь! Огромная просьба, поблагодарите релизера, оцените раздачу и оставьте свои комментарий, если Вы скачали В высокой траве через торрент бесплатно! Внесите свою лепту в развитие PiratBit!
    Комментировать посты могут только пользователи прошедшие не сложную регистрацию
    Показать сообщения:    

    В высокой траве через торрент
    Скачать бесплатно В высокой траве
    В высокой траве скачать торрент
    В высокой траве смотреть онлайн
    Cкачать фильм В высокой траве бесплатно
    В высокой траве скачать торрент в хорошем качестве
    В высокой траве смотреть онлайн бесплатно в хорошем качестве


    Вы не можете начинать темы
    Вы не можете отвечать на сообщения
    Вы не можете редактировать свои сообщения
    Вы не можете удалять свои сообщения
    Вы не можете голосовать в опросах
    Вы не можете прикреплять файлы к сообщениям
    Вы можете скачивать файлы