Всегда рабочее зеркало без VPN и Proxy просто перед .vidak.icu напиши любое слово или цифру, Пример http://l7j7.vidak.icu

MVO

2 сезон

1 сезон

1

1 сезон

iTunes

2 сезон

13

1 сезон

Распродажа

pack

Рекомендуем

Пиратка

30

ВАЖНО

RePack

MK11

RePack

jed

RePack

fifa19

RePack

RDR2

RePack

NEED FOR SPEED™ PAYBACK

Кинопоиск HD

6 сезон

 Острые козырьки 6 сезон

Все сериалы

все сериалы на PB.wtf

RePack

FAR CRY 5

Anonymous, нам критически не хватает 5601 руб. на оплату серверов и переферии за Апрель, помоги нам пожалуйста, вся надежда только на тебя. В благодарность мы отключим тебе всю рекламу на сайте!

×
  
Magnet ссылка

Киллер по вызову / Lucky Day (Роджер Эвери / Roger Avary) [2019, боевик, триллер, криминал, BDRip-AVC] [AVO] (Михаил Чадов) pb.wtf

Киллер по вызову через торрент pb.wtf

Размер: 1.4 GB | Добавлен: 2 года назад | Торрент скачан:132 раза
Смотреть онлайн Киллер по вызову | Скачать    Ребята, помогите собрать деньги на оплату серверов!!!

09-12-2019 10:10 Киллер по вызову Скачать торрент  

Киллер по вызову / Прушный денек / Lucky Day Страна: Франция, Канада
Жанр: боевик, триллер, криминал
Год выпуска: 2019
Продолжительность: 01:39:14
Перевод: Авторский (одноголосый закадровый) - Михаил Чадов | ненормативная лексика
Субтитры: нет

Режиссер: Роджер Эвери / Roger Avary
В ролях: Люк Брейси, Нина Добрев, Криспин Гловер, Элла Райан Куинн, Кле Беннетт, Клифтон Коллинз мл., Дэвид Хьюлетт, Надя Фарес, Томер Сисле, Марк Дакаскос
Описание: В первый же день после освобождения из тюрьмы взломщик сейфов Ред и его подруга становятся мишенью киллера. Сея вокруг себя хаос, киллер шутит с акцентом, что мстит за убитую собаку. Не спеша уничтожать жертву, он явно ведет свою игру, истинной целью которой может быть вовсе не Ред.

Качество видео: BDRip-AVC
Формат видео: MKV
Видео: MPEG-4 AVC, 1550 Кбит/с, 720x302
Аудио: 48 kHz, AC3 Dolby Digital, 6 ch, ~448 kbps | AVO
General
Unique ID : 228041995217049820940982010334677443346 (0xAB8F4A6C67BDE0CBB5DC281740E62312)
Complete name : G:\ФИЛЬМЫ\Lucky Day 2019 [7654]_Chadov.mkv
Format : Matroska
Format version : Version 4 / Version 2
File size : 1.40 GiB
Duration : 1h 39mn
Overall bit rate : 2 013 Kbps
Encoded date : UTC 2020-05-01 11:32:37
Writing application : mkvmerge v8.9.0 ('Father Daughter') 64bit
Writing library : libebml v1.3.3 + libmatroska v1.4.4

Video
ID : 1
Format : AVC
Format/Info : Advanced Video Codec
Format profile : High@L4.1
Format settings, CABAC : Yes
Format settings, ReFrames : 4 frames
Codec ID : V_MPEG4/ISO/AVC
Duration : 1h 39mn
Bit rate : 1 550 Kbps
Width : 720 pixels
Height : 302 pixels
Display aspect ratio : 2.40:1
Frame rate mode : Constant
Frame rate : 23.976 fps
Color space : YUV
Chroma subsampling : 4:2:0
Bit depth : 8 bits
Scan type : Progressive
Bits/(Pixel*Frame) : 0.297
Stream size : 1.06 GiB (76%)
Writing library : x264 core 142 r2479 dd79a61
Encoding settings : cabac=1 / ref=1 / deblock=1:0:0 / analyse=0x3:0x3 / me=dia / subme=1 / psy=1 / psy_rd=1.00:0.00 / mixed_ref=0 / me_range=16 / chroma_me=1 / trellis=0 / 8x8dct=1 / cqm=0 / deadzone=21,11 / fast_pskip=1 / chroma_qp_offset=0 / threads=24 / lookahead_threads=2 / sliced_threads=0 / nr=0 / decimate=1 / interlaced=0 / bluray_compat=0 / constrained_intra=0 / bframes=3 / b_pyramid=2 / b_adapt=1 / b_bias=0 / direct=1 / weightb=1 / open_gop=0 / weightp=1 / keyint=240 / keyint_min=24 / scenecut=40 / intra_refresh=0 / rc_lookahead=0 / rc=abr / mbtree=0 / bitrate=1550 / ratetol=1.0 / qcomp=0.60 / qpmin=0 / qpmax=69 / qpstep=4 / vbv_maxrate=62500 / vbv_bufsize=78125 / nal_hrd=none / filler=0 / ip_ratio=1.40 / pb_ratio=1.30 / aq=1:1.00
Default : Yes
Forced : No
Color range : Limited
Color primaries : BT.709
Transfer characteristics : BT.709
Matrix coefficients : BT.709

Audio
ID : 2
Format : AC-3
Format/Info : Audio Coding 3
Mode extension : CM (complete main)
Format settings, Endianness : Big
Codec ID : A_AC3
Duration : 1h 39mn
Bit rate mode : Constant
Bit rate : 448 Kbps
Channel(s) : 6 channels
Channel positions : Front: L C R, Side: L R, LFE
Sampling rate : 48.0 KHz
Compression mode : Lossy
Delay relative to video : -83ms
Stream size : 318 MiB (22%)
Title : Chadov
Language : Russian
Default : Yes
Forced : No

Menu
00:00:00.000 : :00:00:00.000
00:06:02.278 : :00:06:02.070
00:10:49.815 : :00:10:49.649
00:18:16.970 : :00:18:16.846
00:23:42.045 : :00:23:41.837
00:30:44.634 : :00:30:44.551
00:37:38.256 : :00:37:38.131
00:43:59.678 : :00:43:59.554
00:48:35.537 : :00:48:35.412
00:53:35.420 : :00:53:35.337
01:00:05.643 : :01:00:05.519
01:07:10.526 : :01:07:10.443
01:11:08.305 : :01:11:08.222
01:17:25.265 : :01:17:25.140
01:24:48.708 : :01:24:48.583
01:29:50.718 : :01:29:50.594
скриншот  скриншот  скриншот  
pb.wtf



Скачать Киллер по вызову через торрент https://i111.fastpic.ru/big/2020/0503/60/7aa7154f2961fa667cb941397a27d460.jpg Скачать, смотреть онлайн Киллер по вызову бесплантно в хорошем качестве Описание: В первый же день после освобождения из тюрьмы взломщик сейфов Ред и его подруга становятся мишенью киллера. Сея вокруг себя хаос, ... 9.9 10 18
Торрент: Зарегистрирован [2020-05-03 14:03] · скачан: 132 раз
Статус: √ проверено
Размер: 1.4 GB
Как cкачать? Как скачать Киллер по вызову через торрент | UTorrent

% Раздел Тема Автор DL S | L
Фильмы 2019-2020 [DVDrip, WEB-DLRip, HDrip] (DUB, MVO) [ 747 MB ] Киллер по вызову / Прушный денек / Lucky Day [2019 HDRip] bober100 Скачать
1 | 0
Фильмы 2019-2020 [DVDrip, WEB-DLRip, HDrip] (DUB, MVO) [ 1.41 GB ] Киллер по вызову / Прушный денек / Lucky Day [2019 BDRip-AVC] bober100 Скачать
2 | 0
Фильмы 2019-2020 [DVDrip, WEB-DLRip, HDrip] (DUB, MVO) [ 1.46 GB ] Киллер по вызову / Прушный денек / Lucky Day [2019 BDRip] bober100 Скачать
1 | 0
Фильмы (Blu-ray, BD-Remux, HDDVD) [ 19.3 GB ] Киллер по вызову / Прушный денек / Lucky Day [2019 BD Remux 1080p] bober100 Скачать
1 | 0
Фильмы [HD 720p, 1080p] (Хороший звук DUB, MVO) [ 4.04 GB ] Киллер по вызову / Прушный денек / Lucky Day [2019 BDRip 720p] bober100 Скачать
1 | 0
Фильмы [HD 720p, 1080p] (Хороший звук DUB, MVO) [ 10.87 GB ] Киллер по вызову / Прушный денек / Lucky Day [2019 BDRip 1080p] bober100 Скачать
2 | 0
Фильмы 2019-2020 [DVDrip, WEB-DLRip, HDrip] (DUB, MVO) [ 1.42 GB ] Киллер по вызову / Lucky Day [2019 BDRip] - Twi7ter Скачать
7 | 0


Последний раз редактировалось: killermax2013 (2020-05-03 14:03), всего редактировалось 1 раз

28-11-2019 20:33  

Отключить всю рекламу на сайте

    Дорогой пользователь! Огромная просьба, поблагодарите релизера, оцените раздачу и оставьте свои комментарий, если Вы скачали Киллер по вызову через торрент бесплатно!
    Комментировать посты могут только пользователи прошедшие не сложную регистрацию
    Показать сообщения:    

    Киллер по вызову через торрент
    Скачать бесплатно Киллер по вызову
    Киллер по вызову скачать торрент
    Киллер по вызову смотреть онлайн
    Cкачать фильм Киллер по вызову бесплатно
    Киллер по вызову скачать торрент в хорошем качестве
    Киллер по вызову смотреть онлайн бесплатно в хорошем качестве


    Вы не можете начинать темы
    Вы не можете отвечать на сообщения
    Вы не можете редактировать свои сообщения
    Вы не можете удалять свои сообщения
    Вы не можете голосовать в опросах
    Вы не можете прикреплять файлы к сообщениям
    Вы можете скачивать файлы