Ссылка на приватное зеркало всего за 1$. Внимание количество ограничено!!!

OK

1+1

iTunes

мы

OK

1

WEB-DLRip

Джокер

Пифагор

Ведьмак / The Witcher сериал

Лицензия

ПШазам

ОК

Оно 2

iTunes

30
pack

Вам бонус

ВАЖНО

!!Акция!!

Alien_RageХит недели

RePack

Resident Evil 21

ИГРА 18+

pack

RePack

jed

!!Акция!!

Alien_Rage

RePack

fifa19

RePack

Assassins Creed: Odyssey

RePack

NEED FOR SPEED™ PAYBACK

4 сезон

9 сезон

Бесстыжие 9 сезон

Все сериалы

все сериалы на PB.wtf

RePack

FAR CRY 5
  

Брачная история / Marriage Story (Ноа Баумбак) [2019, драма, мелодрама, комедия, WEB-DL 1080p] MVO [Jaskier] pb.wtf

Брачная история через торрент pb.wtf

Раздают: 8 [ 44 KB/s ]
Размер: 8.13 GB | Добавлен: 1 мес. 6 д. назад | Торрент скачан:172 раза
Скачать  

14-12-2019 03:22 Брачная история Скачать торрент  

Брачная история / Marriage Story
Год выпуска: 2019
Страна: США
Жанр: драма, мелодрама, комедия
Продолжительность: 02:16:58
Перевод: Профессиональный (многоголосый) | Jaskier
Субтитры: русские и английские (отключаемые, srt)

Режиссер: Ноа Баумбак

rating


В ролях: Скарлетт Йоханссон, Адам Драйвер, Мерритт Уивер, Лора Дерн, Рэй Лиотта, Уоллес Шоун, Джули Хэгерти, Алан Алда, Марк О’Брайэн, Кайл Борнхаймер и др.

Описание: Супруги — нью-йоркский театральный режиссёр Чарли и актриса его театра Николь — находятся в процессе развода. Чарли всё устраивало в их браке, но Николь считает, что потеряла себя, и, забрав сына, переезжает к маме в Лос-Анджелес. Там ей уже предложили роль в сериале и посоветовали высококлассную адвокатшу по разводам. Теперь Чарли тоже придётся искать адвоката, а также разрываться между Западным и Восточным побережьями, чтобы продолжать работать и проводить время с сыном.

Качество: WEB-DL 1080p
Формат: MKV

Видео: MPEG-4 AVC, 7500 Кбит/с, 1920x1080
Aудио #1: AC3 | 48 KHz | 5.1 (Front: L С R Side: L R) + LFE | ~384 kbps [RUS]
Aудио #2: AC3 | 48 KHz | 5.1 (Front: L С R Side: L R) + LFE | ~640 kbps [ENG]
скриншот  скриншот  скриншот  

Общее
Уникальный идентификатор : 245938973279949733093085792650751543809 (0xB9061F9173B386AEA6663A5844D68A01)
Полное имя : D:\Marriage.Story.2019.WEB-DL.1080p.Jaskier.MegaPeer.(qqss44).mkv
Формат : Matroska
Версия формата : Version 2
Размер файла : 8,13 Гбайт
Продолжительность : 2 ч. 16 м.
Режим общего битрейта : Переменный
Общий поток : 8495 Кбит/сек
Название фильма : Marriage.Story.2019.WEB-DL.1080p.Jaskier.MegaPeer.(qqss44)
Дата кодирования : UTC 2019-12-13 23:08:11
Программа кодирования : mkvmerge v7.8.0 ('River Man') 32bit built on Apr 3 2015 12:11:22
Библиотека кодирования : libebml v1.3.1 + libmatroska v1.4.2

Видео
Идентификатор : 1
Формат : AVC
Формат/Информация : Advanced Video Codec
Профиль формата : Main@L4
Параметр CABAC формата : Да
Параметр RefFrames формата : 3 кадра
Идентификатор кодека : V_MPEG4/ISO/AVC
Продолжительность : 2 ч. 16 м.
Вид битрейта : Переменный
Битрейт : 7500 Кбит/сек
Максимальный битрейт : 11,2 Мбит/сек
Ширина : 1920 пикселей
Высота : 1080 пикселей
Соотношение сторон : 16:9
Режим частоты кадров : Постоянный
Частота кадров : 24,000 кадра/сек
Цветовое пространство : YUV
Субдискретизация насыщенности : 4:2:0
Битовая глубина : 8 бит
Тип развёртки : Прогрессивная
Бит/(Пиксели*Кадры) : 0.151
Размер потока : 6,99 Гбайт (86%)
Библиотека кодирования : x264 core 148 r2715 7e75228
Настройки программы : cabac=1 / ref=3 / deblock=1:0:0 / analyse=0x1:0x111 / me=umh / subme=10 / psy=1 / psy_rd=1.00:0.00 / mixed_ref=1 / me_range=24 / chroma_me=1 / trellis=2 / 8x8dct=0 / cqm=0 / deadzone=21,11 / fast_pskip=1 / chroma_qp_offset=-2 / threads=6 / lookahead_threads=1 / sliced_threads=0 / nr=0 / decimate=1 / interlaced=0 / bluray_compat=0 / stitchable=1 / constrained_intra=0 / bframes=2 / b_pyramid=0 / b_adapt=2 / b_bias=0 / direct=3 / weightb=1 / open_gop=0 / weightp=2 / keyint=250 / keyint_min=24 / scenecut=0 / intra_refresh=0 / rc_lookahead=48 / rc=2pass / mbtree=1 / bitrate=7500 / ratetol=1.0 / qcomp=0.50 / qpmin=6 / qpmax=51 / qpstep=4 / cplxblur=20.0 / qblur=0.5 / vbv_maxrate=11250 / vbv_bufsize=15000 / nal_hrd=vbr / filler=0 / ip_ratio=1.40 / aq=1:1.00
Язык : English
Default : Да
Forced : Нет

Аудио #1
Идентификатор : 2
Формат : AC-3
Формат/Информация : Audio Coding 3
Расширение режима : CM (complete main)
Параметр Endianness формата : Big
Идентификатор кодека : A_AC3
Продолжительность : 2 ч. 16 м.
Вид битрейта : Постоянный
Битрейт : 384 Кбит/сек
Каналы : 6 каналов
Расположение каналов : Front: L C R, Side: L R, LFE
Частота : 48,0 КГц
Частота кадров : 31,250 кадров/сек (1536 spf)
Метод сжатия : С потерями
Размер потока : 376 Мбайт (5%)
Язык : Russian
Default : Да
Forced : Нет

Аудио #2
Идентификатор : 3
Формат : AC-3
Формат/Информация : Audio Coding 3
Расширение режима : CM (complete main)
Параметр Endianness формата : Big
Идентификатор кодека : A_AC3
Продолжительность : 2 ч. 16 м.
Вид битрейта : Постоянный
Битрейт : 640 Кбит/сек
Каналы : 6 каналов
Расположение каналов : Front: L C R, Side: L R, LFE
Частота : 48,0 КГц
Частота кадров : 31,250 кадров/сек (1536 spf)
Метод сжатия : С потерями
Размер потока : 627 Мбайт (8%)
Язык : English
Default : Нет
Forced : Нет

Текст #1
Идентификатор : 4
Формат : UTF-8
Идентификатор кодека : S_TEXT/UTF8
Идентификатор кодека/Информация : UTF-8 Plain Text
Язык : Russian
Default : Нет
Forced : Нет

Текст #2
Идентификатор : 5
Формат : UTF-8
Идентификатор кодека : S_TEXT/UTF8
Идентификатор кодека/Информация : UTF-8 Plain Text
Язык : English
Default : Нет
Forced : Нет

pb.wtf



Скачать Брачная история через торрент https://img15.lostpic.net/2019/12/14/ab3c2db424f9ea25df8ec7d1c7172bc7.jpg Скачать фильм Брачная история через торрент бесплантно в хорошем качестве Описание: Супруги — нью-йоркский театральный режиссёр Чарли и актриса его театра Николь — находятся в процессе развода. Чарли всё ... 9.6 10 5
Торрент: Зарегистрирован [2019-12-14 03:22] · скачан: 172 раз
Статус: √ проверено
Размер: 8.13 GB
Как cкачать? Как скачать Брачная история через торрент | qTorrent

% Раздел Тема Автор DL S | L
Фильмы (WEB-DL 720p, 1080p) [ 8.37 GB ] Брачная история / Marriage Story [2019 WEB-DL 1080p] [MVO] killermax2013 Скачать
14 | 0
Фильмы 2019-2020 [DVDrip, WEB-DLRip, HDrip] (DUB, MVO) [ 1.46 GB ] Брачная история / Marriage Story [2019 WEB-DLRip] MVO [Jaskier] bober100 Скачать
8 | 0
Фильмы 2019-2020 [DVDrip, WEB-DLRip, HDrip] (DUB, MVO) [ 2.18 GB ] Брачная история / Marriage Story [2019 WEB-DLRip] MVO [Jaskier] bober100 Скачать
4 | 1

28-11-2019 20:33  

Отключить всю рекламу на сайте

    Дорогой пользователь! Огромная просьба, поблагодарите релизера, оцените раздачу и оставьте свои комментарий, если Вы скачали Брачная история через торрент бесплатно! Внесите свою лепту в развитие PiratBit!
    Комментировать посты могут только пользователи прошедшие не сложную регистрацию
    Показать сообщения:    

    Брачная история через торрент
    Скачать бесплатно Брачная история
    Брачная история скачать торрент
    Брачная история смотреть онлайн
    Cкачать фильм Брачная история бесплатно
    Брачная история скачать торрент в хорошем качестве
    Брачная история смотреть онлайн бесплатно в хорошем качестве


    Вы не можете начинать темы
    Вы не можете отвечать на сообщения
    Вы не можете редактировать свои сообщения
    Вы не можете удалять свои сообщения
    Вы не можете голосовать в опросах
    Вы не можете прикреплять файлы к сообщениям
    Вы можете скачивать файлы