Ссылка на приватное зеркало нашего сайта всего за 1$. Внимание количество ограничено!!!

2 сезон

iTunes

1 сезон

1

2 сезон

2 сезон

iTunes

1 сезон

RePack

30

Новинка

ВАЖНО

ИГРА 18+

pack

RePack

MK11
pack

Забери бонус

RePack

jed

!!Акция!!

Alien_Rage

RePack

fifa19

RePack

Assassins Creed: Odyssey

RePack

NEED FOR SPEED™ PAYBACK

4 сезон

9 сезон

Бесстыжие 9 сезон

Все сериалы

все сериалы на PB.wtf

RePack

FAR CRY 5
  

Гений / Страховой агент / Сезон: 1 / Серии: 1-16 из 16 (Ольга Кандидатова) [2019, Криминал, мелодрама, SATRip] pb.wtf

Гений через торрент pb.wtf

Раздают: 11 [ 31 KB/s ] Качают: 2 [ 0 KB/s ]
Размер: 9.37 GB | Добавлен: 11 мес. назад | Торрент скачан:156 раз
Скачать  

21-11-2019 15:56 Гений Скачать торрент  

Гений / Страховой агент
Год выпуска: 2019
Страна: Россия
Жанр: Криминал, мелодрама
Продолжительность: 00:47:00
Субтитры: отсутствуют

Режиссер: Ольга Кандидатова



В ролях: Владимир Данай, Анна Арефьева, Татьяна Трунова, Варвара Владимирова, Дмитрий Поднозов, Илья Сланевский, Андрей Феськов, Сергей Колос, Денис Пьянов, Данила Воропаев, Андрей Лёвин, Глафира Козулина, Андрей Кондратьев, Алексей Титков, Павел Григорьев, Александра Сыдорук, Владимир Постников, Андрей Павловец, Мария Русских, Сергей Агафонов, Гульназ Насырова, Игорь Агеев, Максим Фомин, Виталий Олечкин, Борис Хасанов, Наталья Парашкина, Дарья Румянцева, Алёна Баркова, Наталья Мызникова, Ирина Горкунова, Анна Санникова, Станислав Шапкин, Сергей Гамов, Михаил Вассербаум, Андрей Хитрин, Александр Удальцов, Дмитрий Аршанский, Лариса Логинова, Андрей Астраханцев, Лариса Климова

Описание: После предательства союзников бывший мошенник Феликс (Илья Сланевский) «сдаёт» банду своих подельников в обмен на условный срок и участие в программе защиты свидетелей. В рамках программы Феликса перевозят в Санкт-Петербург, меняя его внешность, паспорт и жизнь. Теперь его зовут Сергей Кривошипов (Владимир Данай) и, будучи в образе совершенно другого человека, Феликс устраивается на работу в страховую компанию. Благодаря тонкому уму, проницательности и наблюдательности, он решает самые сложные вопросы, наживая при этом новых врагов.

Качество: SATRip
Формат: AVI

Видео: XviD, ~ 1570 Кбит/с, 720x400
Аудио: MP3, 2 ch, 192 Кбит/с
скриншот  скриншот  скриншот  

Общее
Полное имя : C:\Geniy.2018.XviD.SATRip.25Kuzmich\Geniy.e01.XviD.SATRip.25Kuzmich.avi
Формат : AVI
Формат/Информация : Audio Video Interleave
Размер файла : 600 Мбайт
Продолжительность : 47 м. 39 с.
Общий поток : 1760 Кбит/сек
Программа кодирования : VirtualDubMod 1.5.10.3 | www.virtualdub-fr.org || (build 2550/release)
Библиотека кодирования : VirtualDubMod build 2550/release

Видео
Идентификатор : 0
Формат : MPEG-4 Visual
Профиль формата : Advanced Simple@L5
Настройки формата : BVOP1
Параметр BVOP формата : 1
Параметр QPel формата : Нет
Параметр GMC формата : Без точки перехода
Параметр матрицы формата : Default (MPEG)
Идентификатор кодека : XVID
Идентификатор кодека/Подсказка : XviD
Продолжительность : 47 м. 39 с.
Битрейт : 1570 Кбит/сек
Ширина : 720 пикселей
Высота : 400 пикселей
Соотношение сторон : 16:9
Частота кадров : 25,000 кадров/сек
Цветовое пространство : YUV
Субдискретизация насыщенности : 4:2:0
Битовая глубина : 8 бит
Тип развёртки : Прогрессивная
Метод сжатия : С потерями
Бит/(Пиксели*Кадры) : 0.207
Размер потока : 508 Мбайт (85%)
Библиотека кодирования : XviD 73

Аудио
Идентификатор : 1
Формат : MPEG Audio
Версия формата : Version 1
Профиль формата : Layer 3
Настройки формата : Joint stereo / MS Stereo
Идентификатор кодека : 55
Идентификатор кодека/Подсказка : MP3
Продолжительность : 47 м. 39 с.
Вид битрейта : Постоянный
Битрейт : 192 Кбит/сек
Каналы : 2 канала
Частота : 48,0 КГц
Частота кадров : 41,667 кадра/сек (1152 SPF)
Метод сжатия : С потерями
Размер потока : 65,4 Мбайт (11%)
Выравнивание : Соединение по промежуткам
Библиотека кодирования : LAME3.99r
Настройки программы : -m j -V 4 -q 2 -lowpass 18.6 -b 192

Внимание! Раздача ведётся путём добавления новых серий; при каждом добавлении создаётся новый торрент.
Чтобы начать докачку новой серии, пользователям необходимо сделать следующее:
1. Остановить скачивание;
2. Удалить старый торрент у себя из клиента (старые серии удалять не надо);
3. Скачать новый торрент и запустить его у себя в клиенте вместо старого, при этом указать клиенту путь в старую папку куда и должно происходить скачивание новых серий. Ваш клиент при этом должен произвести хеширование (проверку) старой папки и будет докачивать только те серии, которых у вас ещё нет. Старые серии при этом не удаляются, а продолжают раздаваться! Eсли вы уже удалили старые серии, то предотвратить повторную закачку старых серий можно, отжав галочку в соответствующих местах при запуске нового торрента.
pb.wtf



Скачать Гений через торрент http://i111.fastpic.ru/big/2019/1121/49/bc09b9da8b5c2a139b803a96a2aa0449.jpg Скачать фильм Гений через торрент бесплантно в хорошем качестве Описание: После предательства союзников бывший мошенник Феликс (Илья Сланевский) «сдаёт» банду своих подельников в обмен на условный срок и ... 9.8 10 12
Info! Золотая раздача, скачанное не засчитывается.
Торрент: Зарегистрирован [2019-12-02 15:41] · скачан: 156 раз
Статус: √ проверено
Размер: 9.37 GB
Как cкачать? Как скачать Гений через торрент | qTorrent

% Раздел Тема Автор DL S | L
Наши сериалы [ 20.11 GB ] Гений / Страховой агент / Сезон: 1 / Серии: 1-16 из 16 [2019 WEB-DL 720p] bober100 Скачать
1 | 0
Наши сериалы [ 33.51 GB ] Гений / Страховой агент / Сезон: 1 / Серии: 1-16 из 16 [2019 WEB-DL 1080p] bober100 Скачать
1 | 0
Наши сериалы [ 11.94 GB ] Гений / Страховой агент / Сезон: 1 / Серии: 1-16 из 16 [2019 WEBRip-AVC] bober100 Скачать
1 | 0
Наши сериалы [ 9.81 GB ] Гений / Страховой агент / Сезон: 1 / Серии: 1-16 из 16 [2019 WEB-DLRip] bober100 Скачать
1 | 0

28-11-2019 20:33  

Отключить всю рекламу на сайте

25-12-2019 11:19 Гений Скачать торрент  

Достойный хороший сериал.спасибо за раздачу.смотреть можноpb.wtf



    Дорогой пользователь! Огромная просьба, поблагодарите релизера, оцените раздачу и оставьте свои комментарий, если Вы скачали Гений через торрент бесплатно! Внесите свою лепту в развитие PiratBit!
    Комментировать посты могут только пользователи прошедшие не сложную регистрацию
    Показать сообщения:    

    Гений через торрент
    Скачать бесплатно Гений
    Гений скачать торрент
    Гений смотреть онлайн
    Cкачать фильм Гений бесплатно
    Гений скачать торрент в хорошем качестве
    Гений смотреть онлайн бесплатно в хорошем качестве


    Вы не можете начинать темы
    Вы не можете отвечать на сообщения
    Вы не можете редактировать свои сообщения
    Вы не можете удалять свои сообщения
    Вы не можете голосовать в опросах
    Вы не можете прикреплять файлы к сообщениям
    Вы можете скачивать файлы