Всегда рабочее зеркало без VPN и Proxy просто перед .vidak.icu напиши любое слово или цифру, Пример http://8ke6.vidak.icu

MVO

Лицензия

1 сезон

1

1 сезон

iTunes

1 сезон

13

1 сезон

Deluxe

pack

Рекомендуем

Пиратка

30

ВАЖНО

RePack

MK11

RePack

jed

RePack

fifa19

RePack

RDR2

RePack

NEED FOR SPEED™ PAYBACK

Кинопоиск HD

6 сезон

 Острые козырьки 6 сезон

Все сериалы

все сериалы на PB.wtf

RePack

FAR CRY 5
  
Magnet ссылка

Форсаж 7 / Furious 7 (Джеймс Ван) [2015 г., боевик, триллер, криминал, WEB-DLRip 720p / 60 FPS, Дубляж] (Theatrical cut / Open Matte) от R.G. HD-Films pb.wtf

Форсаж 7 через торрент pb.wtf

Размер: 4.2 GB | Добавлен: 2 года 6 мес. назад | Торрент скачан:111 раз
Смотреть онлайн Форсаж 7 | Скачать    Ребята, помогите собрать деньги на оплату серверов!!!

28-12-2019 17:17 Форсаж 7 Скачать торрент  

Форсаж 7 / Furious 7
Год выпуска: 2015
Страна: США
Жанр: боевик, триллер, криминал
Продолжительность: 02:17:20
Перевод: Дубляж
Субтитры: Русские

Режиссер: Джеймс Ван

Бюджет: 190 000 000
Премьера в мире: 16 марта 2015

rating

В ролях: Вин Дизель, Пол Уокер, Джейсон Стэйтем, Мишель Родригес, Дуэйн Джонсон, Тайриз Гибсон, Лудакрис, Натали Эммануэль, Джордана Брюстер, Курт Рассел

Описание: Они покорили Токио и Рио, Лос-Анджелес и Лондон. Но мир больше не играет по их правилам. Зной арабских пустынь, неприлично высокие небоскребы, миллионы долларов на колесах и очень, очень знаменитый злодей. Скорость не знает границ.

Доп. информация: Театральная версия

Качество: WEB-DLRip 720p / 60 FPS
Формат: MKV
Видео кодек: H.264
Аудио кодек: AC3
Видео: x264, 1280 x 720 (16:9 ), 3986 kbps, 60,000 fps, ( 0.072 bpp)
Аудио#1: Русский, AC-3, 48.0 KHz, 6 ch, 384 Kbps


скриншот   скриншот   скриншот   скриншот   скриншот  Автор рипа: slaventi-69
x264 [info]: frame I:4312 Avg QP:14.37 size: 86813 PSNR Mean Y:51.01 U:56.53 V:55.25 Avg:52.06 Global:51.55
x264 [info]: frame P:125055 Avg QP:18.35 size: 20332 PSNR Mean Y:47.63 U:53.53 V:52.30 Avg:48.72 Global:48.19
x264 [info]: frame B:365031 Avg QP:22.35 size: 3257 PSNR Mean Y:47.27 U:53.28 V:51.97 Avg:48.37 Global:47.80
x264 [info]: consecutive B-frames: 2.6% 7.2% 9.0% 22.6% 45.6% 12.9%


Общее
Уникальный идентификатор : 240220474944261909030182041653122047391 (0xB4B8C7D5130DCD719C39DCBF85821D9F)
Полное имя : F:\Furious.Seven.(2015).WEB-DLRip.720p.(60 Fps)(Open Matte).mkv
Формат : Matroska
Версия формата : Version 4
Размер файла : 4,20 Гбайт
Продолжительность : 2 ч. 17 м.
Общий поток : 4374 Кбит/сек
Название фильма : Форсаж 7 / Furious Seven (2015) (Open Matte) WEB-DLRip 720p (60 Fps)
Дата кодирования : UTC 2019-12-28 16:22:39
Программа кодирования : mkvmerge v12.0.0 ('Trust / Lust') 64bit
Библиотека кодирования : libebml v1.3.4 + libmatroska v1.4.5

Видео
Идентификатор : 1
Формат : AVC
Формат/Информация : Advanced Video Codec
Профиль формата : High@L4.1
Настройки формата : CABAC / 8 Ref Frames
Параметр CABAC формата : Да
Параметр RefFrames формата : 8 кадров
Идентификатор кодека : V_MPEG4/ISO/AVC
Продолжительность : 2 ч. 17 м.
Битрейт : 3986 Кбит/сек
Ширина : 1280 пикселей
Высота : 720 пикселей
Соотношение сторон : 16:9
Режим частоты кадров : Постоянный
Частота кадров : 60,000 кадров/сек
Цветовое пространство : YUV
Субдискретизация насыщенности : 4:2:0
Битовая глубина : 8 бит
Тип развёртки : Прогрессивная
Бит/(Пиксели*Кадры) : 0.072
Размер потока : 3,82 Гбайт (91%)
Заголовок : slaventi-69 ( R.G. HD-Films | 60 fps )
Библиотека кодирования : x264 core 130 r2273 b3065e6
Настройки программы : cabac=1 / ref=8 / deblock=1:-2:-2 / analyse=0x3:0x113 / me=umh / subme=9 / psy=1 / psy_rd=1.00:0.00 / mixed_ref=1 / me_range=24 / chroma_me=1 / trellis=2 / 8x8dct=1 / cqm=0 / deadzone=21,11 / fast_pskip=1 / chroma_qp_offset=-2 / threads=10 / lookahead_threads=2 / sliced_threads=0 / nr=0 / decimate=1 / interlaced=0 / bluray_compat=0 / constrained_intra=0 / bframes=5 / b_pyramid=2 / b_adapt=2 / b_bias=0 / direct=2 / weightb=1 / open_gop=0 / weightp=2 / keyint=250 / keyint_min=25 / scenecut=40 / intra_refresh=0 / rc_lookahead=40 / rc=crf / mbtree=1 / crf=17.0 / qcomp=0.60 / qpmin=0 / qpmax=69 / qpstep=4 / ip_ratio=1.40 / aq=1:1.00
Язык : English
Default : Да
Forced : Нет

Аудио
Идентификатор : 2
Формат : AC-3
Формат/Информация : Audio Coding 3
Коммерческое название : Dolby Digital
Идентификатор кодека : A_AC3
Продолжительность : 2 ч. 17 м.
Вид битрейта : Постоянный
Битрейт : 384 Кбит/сек
Каналы : 6 каналов
Channel layout : L R C LFE Ls Rs
Частота : 48,0 КГц
Частота кадров : 31,250 кадров/сек (1536 SPF)
Битовая глубина : 16 бит
Метод сжатия : С потерями
Размер потока : 377 Мбайт (9%)
Заголовок : Dub
Язык : Russian
ServiceKind/String : Complete Main
Default : Да
Forced : Нет

Текст
Идентификатор : 3
Формат : UTF-8
Идентификатор кодека : S_TEXT/UTF8
Идентификатор кодека/Информация : UTF-8 Plain Text
Продолжительность : 2 ч. 16 м.
Битрейт : 68 бит/сек
ElementCount : 1406
Размер потока : 68,9 Кбайт (0%)
Язык : Russian
Default : Нет
Forced : Нет

Просьба к переливающим на другие сайты, в оформлении указывайте пожалуйста авторство группы R.G. HD-Films pb.wtf



Скачать Форсаж 7 через торрент http://img.lostpic.net/orig_images/d/7/1/d71fb2beeda24d2f413af74582009be6.jpg Скачать, смотреть онлайн Форсаж 7 бесплантно в хорошем качестве Описание: Они покорили Токио и Рио, Лос-Анджелес и Лондон. Но мир больше не играет по их правилам. Зной арабских пустынь, неприлично ... 10 10 3
Торрент: Зарегистрирован [2019-12-28 17:17] · скачан: 111 раз
Статус: √ проверено
Размер: 4.2 GB
Как cкачать? Как скачать Форсаж 7 через торрент | UTorrent

28-11-2019 20:33  

Отключить всю рекламу на сайте

    Дорогой пользователь! Огромная просьба, поблагодарите релизера, оцените раздачу и оставьте свои комментарий, если Вы скачали Форсаж 7 через торрент бесплатно!
    Комментировать посты могут только пользователи прошедшие не сложную регистрацию
    Показать сообщения:    

    Форсаж 7 через торрент
    Скачать бесплатно Форсаж 7
    Форсаж 7 скачать торрент
    Форсаж 7 смотреть онлайн
    Cкачать фильм Форсаж 7 бесплатно
    Форсаж 7 скачать торрент в хорошем качестве
    Форсаж 7 смотреть онлайн бесплатно в хорошем качестве


    Вы не можете начинать темы
    Вы не можете отвечать на сообщения
    Вы не можете редактировать свои сообщения
    Вы не можете удалять свои сообщения
    Вы не можете голосовать в опросах
    Вы не можете прикреплять файлы к сообщениям
    Вы можете скачивать файлы