Всегда рабочее зеркало без VPN и Proxy просто перед .vidak.icu напиши любое слово или цифру, Пример http://fvf8.vidak.icu

MVO

MVO

1 сезон

1

1 сезон

iTunes

1 сезон

13

1 сезон

Deluxe

pack

Рекомендуем

Repack

30

ВАЖНО

RePack

MK11

RePack

jed

RePack

fifa19

RePack

RDR2

RePack

NEED FOR SPEED™ PAYBACK

Кинопоиск HD

6 сезон

 Острые козырьки 6 сезон

Все сериалы

все сериалы на PB.wtf

RePack

FAR CRY 5
  
Magnet ссылка

Зелёный фургон. Совсем другая история / Сезон: 1 / Серии: 1-16 из 16 (Сергей Крутин) [2020, Детектив, криминал, комедия, HDTVRip] pb.wtf

Зелёный фургон. Совсем другая история через торрент pb.wtf

Размер: 10.23 GB | Добавлен: 2 года 6 мес. назад | Торрент скачан:158 раз
Смотреть онлайн Зелёный фургон. Совсем другая история | Скачать    Ребята, помогите собрать деньги на оплату серверов!!!

03-01-2020 18:44 Зелёный фургон. Совсем другая история Скачать торрент  

Зелёный фургон. Совсем другая история Год выпуска: 2020
Страна: Россия
Жанр: Детектив, криминал, комедия
Продолжительность: ~ 00:50:00
Перевод: Не требуется
Субтитры: отсутствуют

Режиссер: Сергей Крутин



В ролях: Дмитрий Харатьян, Семён Трескунов, Екатерина Олькина, Александр Наумов, Наталия Вдовина, Наталья Кийко, Валерий Кухарешин, Артур Ваха, Екатерина Дурова, Артур Сопельник, Александр Рапопорт, Вячеслав Манучаров, Александр Коршунов, Юрий Маслак, Анатолий Кот, Ярослав Жалнин, Александр Давыдов (IV), Олег Масленников-Войтов, Егор Клеймёнов, Алексей Дмитриев, Александр Пугачёв (II), Светлана Казарцева, Александр Сергеев (IV), Владимир Румянцев, Михаил Колядин, Сергей Тишин, Евгений Кушпель, Эдуард Нахатакян, Юрий Литвинов (II), Ольга Гринджак, Ольга Дегтярёва, Анатолий Матешов, Виталия Корниенко, Алексей Овсянников, Константин Тополага, Александр Богданов (II), Алексей Ушаков (III), Евгений Гончаров, Екатерина Тарасова (II), Александр Коваль (IV), Виктория Адельфина, Лина Весёлкина, Игорь Макаров (II), Наталья Тищенко, Владимир Волжин, Ярослав Коробанов, Сергей Граб, Дмитрий Овчинников, Ульяна Панова, Максим Кузин, Артём Киселёв, Виктор Фалалеев, Валерий Гришин, Елена Кабанова, Алексей Бурко, Никита Белых, Татьяна Ометова, Артур Павленко, Василий Куприянов, Александр Скулков, Юлия Балицкая

Описание: 1946 год. Спустя 20 лет, всё в той же Одессе, повзрослевший Володя Патрикеев продолжает бороться с преступностью. Отсидев в тюрьме в 1937 году, отвоевав в штрафбате, а затем в разведроте, он возвращается в гражданскую жизнь и начинает расследовать сложные уголовные дела под руководством совсем "зеленого" сержанта Жени Красавина... Их первое, незначительное, расследование о суррогатной водке, наводнившей город, выводит сыщиков на самый верх, в Москву. И, если они не остановят преступников, может грянуть крупнейший геополитический скандал...

Качество: HDTVRip
Формат: AVI

Видео: XviD, ~ 1600 Кбит/с, 720х400, 25 кадр/с
Аудио: 48.0 kHz, AC3 Dolby Digital, 2/0 (L,R) ch, ~ 192 kbps
скриншот  скриншот  скриншот  скриншот  

Общее
Полное имя : D:Zeljonyj furgon.HDTVRip.GeneralFilm1.Zeljonyj furgon.HDTVRip.GeneralFilm.avi
Формат : AVI
Формат/Информация : Audio Video Interleave
Размер файла : 631 Мбайт
Продолжительность : 48 м.
Общий поток : 1801 Кбит/сек

Видео
Идентификатор : 0
Формат : MPEG-4 Visual
Профиль формата : Advanced [email protected]
Параметр BVOP формата : 1
Параметр QPel формата : Нет
Параметр GMC формата : Без точки перехода
Параметр матрицы формата : Выборочная
Идентификатор кодека : XVID
Идентификатор кодека/Подсказка : XviD
Продолжительность : 48 м.
Битрейт : 1598 Кбит/сек
Ширина : 720 пикселей
Высота : 400 пикселей
Соотношение сторон : 16:9
Частота кадров : 25,000 кадров/сек
Цветовое пространство : YUV
Субдискретизация насыщенности : 4:2:0
Битовая глубина : 8 бит
Тип развёртки : Прогрессивная
Метод сжатия : С потерями
Бит/(Пиксели*Кадры) : 0.222
Размер потока : 560 Мбайт (89%)
Библиотека кодирования : XviD 1.2.1 (UTC 2008-12-04)

Аудио
Идентификатор : 1
Формат : AC-3
Формат/Информация : Audio Coding 3
Расширение режима : CM (complete main)
Параметр Endianness формата : Big
Идентификатор кодека : 2000
Продолжительность : 48 м.
Вид битрейта : Постоянный
Битрейт : 192 Кбит/сек
Каналы : 2 канала
Расположение каналов : Front: L R
Частота : 48,0 КГц
Битовая глубина : 16 бит
Метод сжатия : С потерями
Размер потока : 67,3 Мбайт (11%)
Выравнивание : Соединение по промежуткам
Продолжительность промежутка : 32 мс. (0,80 видеокадр)

Раздача ведётся путём добавления новых серий, при каждом добавлении создаётся новый торрент. Чтобы начать докачку новой серии, пользователям необходимо сделать следующее:

- Остановить скачивание.
- Удалить старый торрент у себя из клиента (старые серии удалять не надо).
- Скачать новый торрент и запустить его у себя в клиенте вместо старого, при этом указать клиенту путь в старую папку куда и должно происходить скачивание новых серий.

Ваш клиент при этом должен произвести хеширование (проверку) старой папки (если не производит сам - помогите ему сделать это), и будет докачивать только те серии которых у вас ещё нет. Старые серии при этом не удаляются, а продолжают раздаваться!
Если вы уже удалили старые серии, то предотвратить повторную закачку старых серий можно, отжав галочку в соответствующих местах при запуске нового торрента. По возможности, желательно не удалять старые серии как можно дольше, чтобы релизер не столько продолжал раздавать старые серии, а смог сконцентрироваться на новых.
pb.wtf



Скачать Зелёный фургон. Совсем другая история через торрент http://c.radikal.ru/c27/2001/aa/267237c40ef6.jpg Скачать, смотреть онлайн Зелёный фургон. Совсем другая история бесплантно в хорошем качестве Описание: 1946 год. Спустя 20 лет, всё в той же Одессе, повзрослевший Володя Патрикеев продолжает бороться с преступностью. Отсидев в ... 9 10 9
Торрент: Зарегистрирован [2020-01-10 18:20] · скачан: 158 раз
Статус: √ проверено
Размер: 10.23 GB
Как cкачать? Как скачать Зелёный фургон. Совсем другая история через торрент | UTorrent

% Раздел Тема Автор DL S | L
Наши сериалы [ 15.83 GB ] Зелёный фургон. Совсем другая история / Сезон: 1 / Серии: 1-16 из 16 [2020 WEB-DL 720p] bober100 Скачать
1 | 0
Наши сериалы [ 37.38 GB ] Зелёный фургон. Совсем другая история / Сезон: 1 / Серии: 1-16 из 16 [2020 HDTV 1080i] bober100 Скачать
1 | 0
Наши сериалы [ 29.37 GB ] Зелёный фургон. Совсем другая история / Сезон: 1 / Серии: 1-16 из 16 [2020 WEB-DL 1080p] bober100 Скачать
1 | 0
Наши сериалы [ 20.97 GB ] Зелёный фургон. Совсем другая история / Сезон: 1 / Серии: 1-16 из 16 [2020 HDTVRip 720p] bober100 Скачать
1 | 0
Наши сериалы [ 12.45 GB ] Зелёный фургон. Совсем другая история / Сезон: 1 / Серии: 1-16 из 16 [2020 HDTVRip-AVC] bober100 Скачать
1 | 0
Наши сериалы [ 10.61 GB ] Зелёный фургон. Совсем другая история / Сезон: 1 / Серии: 1-16 из 16 [2020 SATRip] bober100 Скачать
1 | 0

28-11-2019 20:33  

Отключить вcю реклaмy на сайте

    Дорогой пользователь! Огромная просьба, поблагодарите релизера, оцените раздачу и оставьте свои комментарий, если Вы скачали Зелёный фургон. Совсем другая история через торрент бесплатно!
    Комментировать посты могут только пользователи прошедшие не сложную регистрацию
    Показать сообщения:    

    Зелёный фургон. Совсем другая история через торрент
    Скачать бесплатно Зелёный фургон. Совсем другая история
    Зелёный фургон. Совсем другая история скачать торрент
    Зелёный фургон. Совсем другая история смотреть онлайн
    Cкачать фильм Зелёный фургон. Совсем другая история бесплатно
    Зелёный фургон. Совсем другая история скачать торрент в хорошем качестве
    Зелёный фургон. Совсем другая история смотреть онлайн бесплатно в хорошем качестве


    Вы не можете начинать темы
    Вы не можете отвечать на сообщения
    Вы не можете редактировать свои сообщения
    Вы не можете удалять свои сообщения
    Вы не можете голосовать в опросах
    Вы не можете прикреплять файлы к сообщениям
    Вы можете скачивать файлы