Доктор Стрэндж

Лицензия

Добыча

Дубляж

Уэнсдэй

1 сезон

Тор

Дубляж

В эфире

Дубляж

Там, где раки поют

MVO

Властелин колец

1 сезон

Deluxe

pack

Рекомендуем

30

Пиратка

ВАЖНО

ВАЖНО

Ghostwire

Пиратка

jed

RePack

nioh2

RePack

RDR2

RePack

NEED FOR SPEED™ PAYBACK

RePack

скачать торрент

Кинопоиск HD

Острые козырьки 6 сезон

6 сезон

FAR CRY 6

RePack

скачать торрент

Лицензия

скачать торрент

MVO

1

1 сезон

скачать торрент

1 сезон

скачать торрент

Лицензия

  

Барин (Николай Потапов) [2006, мелодрама, комедия, DVD5]

Смотреть онлайн | Скачать   

04-01-2020 14:30 Барин Скачать торрент  

Барин Год выпуска: 2006
Страна: Украина
Жанр: мелодрама, комедия
Продолжительность: 2 х ~ 00:49:18
Перевод: не требуется

Режиссер: Николай Потапов

В ролях: Павел Майков, Анна Кузина, Оксана Филоненко, Иван Бортник, Игорь Тихомиров, Андрей Павленко, Максим Коновалов, Юрий Дубровин, Сергей Гаврилюк

Описание: Никита - молодой преуспевающий бизнесмен, добившийся в жизни всего, чего хотел. В свой очередной день рождения он собирает компанию друзей - шутников и выдумщиков, которые приготовили имениннику грандиозный сюрприз. Когда в разгар веселья Никита засыпает, гости перевозят его на вертолете в глухую деревню, затерянную среди лесов, полей и болот. Сговорившись с местными крестьянами и наняв двух профессиональных актеров на роли приказчика и ключницы, они одевают всех участников представления в костюмы крепостных крестьян начала XIX века...



Качество: DVD5
Формат: DVD Video
Видео : PAL 4:3 (720x576) VBR, 4 554 Kbps, 25 fps
Аудио: Russian (Dolby AC3, 2 ch)
Субтитры:Ukrainian
General
Complete name : E:\Барин\VIDEO_TS\VTS_01_1.VOB
Format : MPEG-PS
File size : 1 024 MiB
Duration : 29mn 10s
Overall bit rate mode : Variable
Overall bit rate : 4 908 Kbps

Video
ID : 224 (0xE0)
Format : MPEG Video
Format version : Version 2
Format profile : [email protected]
Format settings, BVOP : Yes
Format settings, Matrix : Custom
Format settings, GOP : M=3, N=12
Format settings, picture structure : Frame
Duration : 29mn 10s
Bit rate mode : Variable
Bit rate : 4 554 Kbps
Maximum bit rate : 7 000 Kbps
Width : 720 pixels
Height : 576 pixels
Display aspect ratio : 4:3
Frame rate : 25.000 fps
Standard : PAL
Color space : YUV
Chroma subsampling : 4:2:0
Bit depth : 8 bits
Scan type : Interlaced
Scan order : Top Field First
Compression mode : Lossy
Bits/(Pixel*Frame) : 0.439
Time code of first frame : 00:00:06:06
Time code source : Group of pictures header
GOP, Open/Closed : Open
Stream size : 950 MiB (93%)
Color primaries : BT.601 PAL
Transfer characteristics : BT.470 System B, BT.470 System G
Matrix coefficients : BT.601

Audio
ID : 189 (0xBD)-128 (0x80)
Format : AC-3
Format/Info : Audio Coding 3
Mode extension : CM (complete main)
Format settings, Endianness : Big
Muxing mode : DVD-Video
Duration : 29mn 9s
Bit rate mode : Constant
Bit rate : 256 Kbps
Channel(s) : 2 channels
Channel positions : Front: L R
Sampling rate : 48.0 KHz
Compression mode : Lossy
Delay relative to video : -80ms
Stream size : 53.4 MiB (5%)

Menu
скриншот  скриншот  скриншот  скриншот  скриншот  скриншот  



Скачать
Чтобы иметь возможность скачивать с Торрент Трекера, нужно Зарегистрироваться

Как скачивать  ·  Рейтинг и ограничения

28-11-2019 20:33  


Отключить вcю реклaмy на сайте, в т.ч. и в плеере онлайн просмотра!

    Дорогой пользователь! Огромная просьба, поблагодарите релизера, оцените раздачу и оставьте свои комментарий, если Вы скачали Барин через торрент бесплатно!!
    Комментировать посты могут только пользователи прошедшие не сложную регистрацию
    Показать сообщения:    


    Барин через торрент
    Скачать бесплатно Барин
    Барин скачать торрент
    Барин смотреть онлайн
    Cкачать фильм Барин бесплатно
    Барин скачать торрент в хорошем качестве
    Барин смотреть онлайн бесплатно в хорошем качестве
    Вы не можете начинать темы
    Вы не можете отвечать на сообщения
    Вы не можете редактировать свои сообщения
    Вы не можете удалять свои сообщения
    Вы не можете голосовать в опросах
    Вы не можете прикреплять файлы к сообщениям
    Вы не можете скачивать файлы
    Барин [2006, мелодрама, комедия, DVD5] смотреть онлайн, скачать торрент picoco.icu