Всегда рабочее зеркало без VPN и Proxy просто перед .vidak.icu напиши любое слово или цифру, Пример http://ejoj.vidak.icu

iTunes

2 сезон

1 сезон

1

1 сезон

iTunes

2 сезон

13

1 сезон

Deluxe

pack

Рекомендуем

Пиратка

30

ВАЖНО

RePack

MK11

RePack

jed

RePack

fifa19

RePack

RDR2

RePack

NEED FOR SPEED™ PAYBACK

Кинопоиск HD

6 сезон

 Острые козырьки 6 сезон

Все сериалы

все сериалы на PB.wtf

RePack

FAR CRY 5

Anonymous, нам критически не хватает 5601 руб. на оплату серверов и переферии за Апрель, помоги нам пожалуйста, вся надежда только на тебя. В благодарность мы отключим тебе всю рекламу на сайте!

×
  
Magnet ссылка

Мандалорец / The Mandalorian / Сезон: 1 / Серии: 1-8 из 8 (Дебора Чоу, Рик Фамуйива, Дэйв Филони, Брайс Даллас Ховард, Тайка Вайтити) [2019, фантастика, боевик, приключения, WEB-DLRip-AVC] [AVO] (Ю.Сербин) pb.wtf

Мандалорец через торрент pb.wtf

Раздают: 1 [ 0 KB/s ]
Размер: 3.99 GB | Добавлен: 1 год 7 мес. назад | Торрент скачан:125 раз
Смотреть онлайн Мандалорец | Скачать    Ребята, помогите собрать деньги на оплату серверов!!!

30-01-2020 12:23 Мандалорец Скачать торрент  

МандалорецThe Mandalorian
Год выпуска: 2019
Страна: США
Жанр: фантастика, боевик, приключения
Продолжительность: 00:35:00
Перевод
: Авторский (одноголосый закадровый) Ю. Сербин

Режиссеры: Дебора Чоу, Рик Фамуйива, Дэйв Филони, Брайс Даллас Ховард, Тайка Вайтити

В ролях: Педро Паскаль, Кайл Пацек, Брендан Уэйн, Бернард Баллен, Александра Гилман, Луис Ричард Гомес, Джамал Антар, Тейт Флетчер, Тони Табоада, Омид Абтахи, Джина Карано, Джанкарло Эспозито, Вернер Херцог, Джулия Джонс, Ник Нолти, Тайка Вайтити, Карл Уэзерс, Марк Бун Джуниор, Билл Бёрр, Доминик Паке, Гари Зиверс, Эмили Суоллоу, Наталия Тена, Минг-На, Джуд С. Уоко и др.
Описание: Одинокий мандалорец-наёмник живёт на краю обитаемой галактики, куда не дотягивается закон Новой Республики. Представитель некогда могучей расы благородных воинов теперь вынужден влачить жалкое существование среди отбросов общества.

Качество: WEB-DLRip-AVC (Исходник: The.Mandalorian.S01.1080p.WEB.H264-DEFLATE)
Формат: MKV
Видео: x264, 1152x482 (2.40:1), 23.976 fps, ~1400 kbps
Аудио: Russian 48.0 KHz, AC3, 6 channels, 384 Kbps |Сербин|
Субтитры
: нет
Реклама: отсутствует

General
Unique ID : 122996789720718466399795974737280367439 (0x5C8851EE0DC7D6B87683A444DBE3FB4F)
Complete name : C:\Раздачи\The.Mandalorian.S01.WEB-DLRip-AVC.DD5.1.x264-CasStudio\The.Mandalorian.S01E01.Chapter.1.The.Mandalorian.WEB-DLRip-AVC.DD5.1.x264-CasStudio.mkv
Format : Matroska
Format version : Version 4
File size : 490 MiB
Duration : 38 min 46 s
Overall bit rate : 1 766 kb/s
Movie name : Мандалорец | The Mandalorian (S01E01) - Release by whip93 x CasStudio
Encoded date : UTC 2020-01-29 12:14:32
Writing application : mkvmerge v40.0.0 ('Old Town Road + Pony') 64-bit
Writing library : libebml v1.3.9 + libmatroska v1.5.2

Video
ID : 1
Format : AVC
Format/Info : Advanced Video Codec
Format profile : High@L4.1
Format settings : CABAC / 14 Ref Frames
Format settings, CABAC : Yes
Format settings, ReFrames : 14 frames
Codec ID : V_MPEG4/ISO/AVC
Duration : 38 min 46 s
Bit rate : 1 381 kb/s
Width : 1 152 pixels
Height : 482 pixels
Display aspect ratio : 2.40:1
Frame rate mode : Constant
Frame rate : 23.976 (24000/1001) FPS
Color space : YUV
Chroma subsampling : 4:2:0
Bit depth : 8 bits
Scan type : Progressive
Bits/(Pixel*Frame) : 0.104
Stream size : 383 MiB (78%)
Title : Encoded by whip93
Writing library : x264 core 159 r2991 1771b55
Encoding settings : cabac=1 / ref=14 / deblock=1:-3:-3 / analyse=0x3:0x113 / me=umh / subme=10 / psy=1 / psy_rd=1.00:0.00 / mixed_ref=0 / me_range=32 / chroma_me=1 / trellis=2 / 8x8dct=1 / cqm=0 / deadzone=21,11 / fast_pskip=1 / chroma_qp_offset=-2 / threads=12 / lookahead_threads=3 / sliced_threads=0 / nr=0 / decimate=1 / interlaced=0 / bluray_compat=0 / constrained_intra=0 / bframes=13 / b_pyramid=2 / b_adapt=2 / b_bias=0 / direct=3 / weightb=1 / open_gop=0 / weightp=2 / keyint=250 / keyint_min=23 / scenecut=40 / intra_refresh=0 / rc=crf / mbtree=0 / crf=19.0 / qcomp=0.72 / qpmin=0 / qpmax=69 / qpstep=4 / ip_ratio=1.40 / pb_ratio=1.30 / aq=3:0.80
Language : English
Default : Yes
Forced : No
Color range : Limited
Color primaries : BT.709
Transfer characteristics : BT.709
Matrix coefficients : BT.709

Audio
ID : 2
Format : AC-3
Format/Info : Audio Coding 3
Commercial name : Dolby Digital
Codec ID : A_AC3
Duration : 38 min 46 s
Bit rate mode : Constant
Bit rate : 384 kb/s
Channel(s) : 6 channels
Channel layout : L R C LFE Ls Rs
Sampling rate : 48.0 kHz
Frame rate : 31.250 FPS (1536 SPF)
Bit depth : 16 bits
Compression mode : Lossy
Stream size : 106 MiB (22%)
Title : AVO (Ю. Сербин)
Language : Russian
Service kind : Complete Main
Default : Yes
Forced : No

скриншот  скриншот  скриншот  

pb.wtf



Скачать Мандалорец через торрент http://a.radikal.ru/a31/2001/3f/33dc243ee88a.jpg Скачать, смотреть онлайн Мандалорец бесплантно в хорошем качестве Описание: Одинокий мандалорец-наёмник живёт на краю обитаемой галактики, куда не дотягивается закон Новой Республики. Представитель некогда ... 8.7 10 7
Торрент: Зарегистрирован [2020-10-26 17:17] · скачан: 125 раз
Статус: √ проверено
Размер: 3.99 GB
Как cкачать? Как скачать Мандалорец через торрент | UTorrent

% Раздел Тема Автор DL S | L
Зарубежные сериалы [ 17.6 GB ] Мандалорец / The Mandalorian / Сезон: 2 / Серии: 1-8 из 8 [2020 WEB-DL 1080p] 6x[MVO] + [AV0] + [Ukr MVO] killermax2013 Скачать
3 | 0
Зарубежные сериалы [ 28.29 GB ] Мандалорец / The Mandalorian / Сезон: 2 / Серии: 1-8 из 8 [2020 WEB-DL 1080p] MVO [LostFilm] bober100 Скачать
1 | 0
Зарубежные сериалы [ 27.55 GB ] Мандалорец / The Mandalorian / Сезон: 2 / Серии: 1-8 из 8 [2020 WEB-DL 1080p] MVO [Jaskier] bober100 Скачать
1 | 0
Зарубежные сериалы [ 34.23 GB ] Мандалорец / The Mandalorian / Сезон: 2 / Серия: 1-8 из 8 [2020 WEB-DL 1080p] [MVO] killermax2013 Скачать
3 | 0
Зарубежные сериалы [ 15.08 GB ] Мандалорец / The Mandalorian / Сезон: 2 / Серии: 1-8 из 8 [2020 WEB-DL 720p] MVO [LostFilm] bober100 Скачать
2 | 0
Зарубежные сериалы [ 17.1 GB ] Мандалорец / The Mandalorian / Сезон: 2 / Серии: 1-8 из 8 [2020 WEBRip 720p] MVO [AlexFilm] bober100 Скачать
1 | 0
Зарубежные сериалы [ 6.49 GB ] Мандалорец / The Mandalorian / Сезон: 2 / Серии: 1-8 из 8 [2020 WEB-DLRip] MVO [AMS] bober100 Скачать
1 | 0

28-11-2019 20:33  

Отключить всю рекламу на сайте

    Дорогой пользователь! Огромная просьба, поблагодарите релизера, оцените раздачу и оставьте свои комментарий, если Вы скачали Мандалорец через торрент бесплатно!
    Комментировать посты могут только пользователи прошедшие не сложную регистрацию
    Показать сообщения:    

    Мандалорец через торрент
    Скачать бесплатно Мандалорец
    Мандалорец скачать торрент
    Мандалорец смотреть онлайн
    Cкачать фильм Мандалорец бесплатно
    Мандалорец скачать торрент в хорошем качестве
    Мандалорец смотреть онлайн бесплатно в хорошем качестве


    Вы не можете начинать темы
    Вы не можете отвечать на сообщения
    Вы не можете редактировать свои сообщения
    Вы не можете удалять свои сообщения
    Вы не можете голосовать в опросах
    Вы не можете прикреплять файлы к сообщениям
    Вы можете скачивать файлы