Всегда рабочее зеркало без VPN и Proxy просто перед .vidak.icu напиши любое слово или цифру, Пример http://3515.vidak.icu

MVO

Лицензия

1 сезон

1

1 сезон

iTunes

1 сезон

13

1 сезон

Deluxe

pack

Рекомендуем

Repack

30

ВАЖНО

RePack

MK11

RePack

jed

RePack

fifa19

RePack

RDR2

RePack

NEED FOR SPEED™ PAYBACK

Кинопоиск HD

6 сезон

 Острые козырьки 6 сезон

Все сериалы

все сериалы на PB.wtf

RePack

FAR CRY 5
  
Magnet ссылка

Зеленый дом (Андрей Фролов) [1964, СССР, драма, SATRip-HEVC от AVP Studio] pb.wtf

Зеленый дом через торрент pb.wtf

Качают: 5 [ 0 KB/s ]
Размер: 1.07 GB | Добавлен: 2 года 5 мес. назад | Торрент скачан:31 раз
Смотреть онлайн Зеленый дом | Скачать    Ребята, помогите собрать деньги на оплату серверов!!!

02-02-2020 09:39 Зеленый дом Скачать торрент  

Зеленый дом
Страна: СССР
Производство: Свердловская киностудия

Жанр: драма
Год выпуска: 1964
Продолжительность: 01:30:42

Перевод: Не требуется
Cубтитры: нет
Оригинальная аудиодорожка: русский

Режиссер: Андрей Фролов


Владимир Селезнёв, Долорес Столбова, Даниил Нетребин, Адольф Ильин, Ольга Левашова, Павел Хромовских, Борис Мезрин, Борис Тарабакин, Елена Максимова, Василий Макаров, Михаил Буйный...
Об актёрах подробней


Демобилизованный моряк Силаев женится на любимой девушке Наташе. Вскоре он узнает, что семья жены живет на нетрудовые доходы, и категорически отказывается участвовать в их спекулятивных махинациях. Силаев и Наташа уезжают в Сибирь, в один из леспромхозов.

Исходник: DVB
Качество видео: SATRip-HEVC
Формат видео: MKV

Видео: 688->763x572 (1,400:1), 25,000 кадров/сек, H265 ~ 1552 kbps avg, 0.155 bit/pixel
Аудио: 48 kHz, AAC LC 2.0, 128 kbps

Раздача от:
Общее
Полное имя : Zelenyy.dom.1964.SATRip-HEVC_[New-team]_by_AVP_Studio.mkv
Формат : Matroska
Версия формата : Version 4
Размер файла : 1,07 Гбайт
Продолжительность : 1 ч. 30 м.
Общий поток : 1682 Кбит/сек
Дата кодирования : UTC 2020-02-02 08:30:17
Программа кодирования : mkvmerge v43.0.0 ('The Quartermaster') 64-bit
Библиотека кодирования : libebml v1.3.10 + libmatroska v1.5.2

Видео
Идентификатор : 1
Формат : HEVC
Формат/Информация : High Efficiency Video Coding
Профиль формата : [email protected]@Main
Идентификатор кодека : V_MPEGH/ISO/HEVC
Продолжительность : 1 ч. 30 м.
Битрейт : 1552 Кбит/сек
Ширина : 696 пикселей
Высота : 572 пикселя
Соотношение сторон : 4:3
Соотношение сторон в оригинале : 4:3
Режим частоты кадров : Постоянный
Частота кадров : 25,000 кадров/сек
Цветовое пространство : YUV
Субдискретизация насыщенности : 4:2:0
Битовая глубина : 8 бит
Бит/(Пиксели*Кадры) : 0.155
Размер потока : 1007 Мбайт (92%)
Язык : Russian
Default : Да
Forced : Нет

Аудио
Идентификатор : 2
Формат : AAC LC
Формат/Информация : Advanced Audio Codec Low Complexity
Идентификатор кодека : A_AAC-2
Продолжительность : 1 ч. 30 м.
Битрейт : 128 Кбит/сек
Каналы : 2 канала
ChannelLayout : L R
Частота : 48,0 КГц
Частота кадров : 46,875 кадров/сек (1024 SPF)
Метод сжатия : С потерями
Задержка видео : 9 мс.
Размер потока : 83,0 Мбайт (8%)
Язык : Russian
Default : Да
Forced : Нет
pb.wtf



Скачать Зеленый дом через торрент http://d.radikal.ru/d33/2002/e0/3403d8e401fd.png Скачать, смотреть онлайн Зеленый дом бесплантно в хорошем качестве Год выпуска: 1964Продолжительность: 01:30:42Перевод: Не требуетсяCубтитры: нетОригинальная аудиодорожка: русскийРежиссер: Андрей ... 5 10 1
Торрент: Зарегистрирован [2020-02-02 09:39] · скачан: 31 раз
Статус: √ проверено
Размер: 1.07 GB
Как cкачать? Как скачать Зеленый дом через торрент | UTorrent

% Раздел Тема Автор DL S | L
Кино СССР [ 1.09 GB ] Зеленый дом [1964 СССР SATRip-AVC от AVP Studio] AVP Studio Скачать
1 | 2

28-11-2019 20:33  

Отключить всю рекламу на сайте

    Дорогой пользователь! Огромная просьба, поблагодарите релизера, оцените раздачу и оставьте свои комментарий, если Вы скачали Зеленый дом через торрент бесплатно!
    Комментировать посты могут только пользователи прошедшие не сложную регистрацию
    Показать сообщения:    

    Зеленый дом через торрент
    Скачать бесплатно Зеленый дом
    Зеленый дом скачать торрент
    Зеленый дом смотреть онлайн
    Cкачать фильм Зеленый дом бесплатно
    Зеленый дом скачать торрент в хорошем качестве
    Зеленый дом смотреть онлайн бесплатно в хорошем качестве


    Вы не можете начинать темы
    Вы не можете отвечать на сообщения
    Вы не можете редактировать свои сообщения
    Вы не можете удалять свои сообщения
    Вы не можете голосовать в опросах
    Вы не можете прикреплять файлы к сообщениям
    Вы можете скачивать файлы