Ссылка на приватное зеркало нашего сайта всего за 1$. Внимание количество ограничено!!!

2 сезон

iTunes

1 сезон

1

2 сезон

2 сезон

iTunes

1 сезон

RePack

30

Ultimate

ВАЖНО

ИГРА 18+

pack

RePack

MK11
pack

Забери бонус

RePack

jed

!!Акция!!

Alien_Rage

RePack

fifa19

RePack

Assassins Creed: Odyssey

RePack

NEED FOR SPEED™ PAYBACK

4 сезон

9 сезон

Бесстыжие 9 сезон

Все сериалы

все сериалы на PB.wtf

RePack

FAR CRY 5
  

Триггер / Провокатор / Сезоны: 1 / Серии: 1-16 из 16 (Дмитрий Тюрин) [2018, драма, WEB-DL 1080p] pb.wtf

Триггер через торрент pb.wtf

Раздают: 4 [ 79 KB/s ] Качают: 1 [ 0 KB/s ]
Размер: 29.47 GB | Добавлен: 8 мес. назад | Торрент скачан:137 раз
Скачать  

07-02-2020 18:08 Триггер Скачать торрент  

Триггер | Провокатор
Год выпуска: 2018
Страна: Россия
Жанр: драма
Продолжительность: ~ 00:50:00 серия
Субтитры: отсутствуют

Режиссер: Дмитрий Тюрин



В ролях: Максим Матвеев, Игорь Костолевский, Светлана Иванова, Виктория Маслова, Роман Маякин, Владислав Тирон, Ангелина Стречина, Марк Юсеф, Данила Дунаев, Ян Цапник, Даниил Воробьёв, Янина Малинчик, Олег Масленников-Войтов, Дарья Буткеева, Маруся Пестунова, Екатерина Соломатина, Хельга Филиппова, Екатерина Соколова-Жубер, Лиза Климова, Мария Ахметзянова, Антон Денисенко, Антонина Паперная, Сергей Гурьев, Максим Костромыкин, Екатерина Копанова, Олег Каменщиков

Описание: Артем Стрелецкий – психолог, профессиональный провокатор, практикующий «шоковый» метод психотерапии. Большинство психологов «нянчатся» с клиентами, по полгода выслушивают жалобы на жизнь, сочувствуют – и получают кругленькие суммы за курс сеансов. Артем провоцирует клиентов, оскорбляет их, смеется над ними, специально подстраивает неловкие ситуации и намеренно выталкивает из зоны психологического комфорта. Провокации активируют в психике человека желание немедленно разобраться со своими проблемами, и решение находится очень быстро – буквально за один-два сеанса. Практика Артема процветает, пока один из клиентов Стрелецкого не накладывает на себя руки. Выйдя на свободу после четырехлетнего заключения по делу о доведении до самоубийства, Артем твёрдо намеревается всё исправить – доказать свою невиновность и вернуть любимую жену Дашу...

Качество: WEB-DL 1080p
Формат: MKV

Видео: 1920х1080 (2,40:1), 25 fps, AVC MPEG-4 (x264), High@L4.1 ~ 5000 kbps avg, 0.094 bit/pixel
Аудио: AC3 Dolby Digital, 48.0 kHz, 2/0 (L,R) ch, 256 kbps
скриншот  скриншот  скриншот  скриншот  скриншот  

General
Unique ID : 202820126321292805377581063333652916791 (0x9895BC4726516F2BAA0F9B2A95C6EA37)
Complete name : D:\Trigger.2020.WEB-DL.(1080p).ExKinoRay\Trigger.S01.E01.2020.WEB-DL.(1080p).ExKinoRay.mkv
Format : Matroska
Format version : Version 4 / Version 2
File size : 1.91 GiB
Duration : 50 min 50 s
Overall bit rate : 5 377 kb/s
Encoded date : UTC 2020-02-07 17:40:43
Writing application : mkvmerge v6.9.1 ('Blue Panther') 64bit built on Apr 18 2014 18:23:38
Writing library : libebml v1.3.0 + libmatroska v1.4.1

Video
ID : 1
Format : AVC
Format/Info : Advanced Video Codec
Format profile : High@L4
Format settings : CABAC / 4 Ref Frames
Format settings, CABAC : Yes
Format settings, ReFrames : 4 frames
Codec ID : V_MPEG4/ISO/AVC
Duration : 50 min 50 s
Bit rate : 5 014 kb/s
Width : 1 920 pixels
Height : 1 080 pixels
Display aspect ratio : 16:9
Frame rate mode : Constant
Frame rate : 25.000 FPS
Color space : YUV
Chroma subsampling : 4:2:0
Bit depth : 8 bits
Scan type : Progressive
Bits/(Pixel*Frame) : 0.097
Stream size : 1.78 GiB (93%)
Default : Yes
Forced : No

Audio
ID : 2
Format : AC-3
Format/Info : Audio Coding 3
Codec ID : A_AC3
Duration : 50 min 50 s
Bit rate mode : Constant
Bit rate : 256 kb/s
Channel(s) : 2 channels
Channel positions : Front: L R
Sampling rate : 48.0 kHz
Frame rate : 31.250 FPS (1536 SPF)
Bit depth : 16 bits
Compression mode : Lossy
Stream size : 93.1 MiB (5%)
Language : Russian
Service kind : Complete Main
Default : Yes
Forced : No

Внимание! Раздача ведётся путём добавления новых серий; при каждом добавлении создаётся новый торрент. Чтобы начать докачку новой серии, пользователям необходимо сделать следующее:
(1) остановить скачивание,
(2) удалить старый торрент у себя из клиента (старые серии удалять не надо),
(3) скачать новый торрент и запустить его у себя в клиенте вместо старого, при этом указать клиенту путь в старую папку куда и должно происходить скачивание новых серий.

Ваш клиент при этом должен произвести хеширование (проверку) старой папки (если не производит сам - помогите ему сделать это), и будет докачивать только те серии которых у вас ещё нет. Старые серии при этом не удаляются, а продолжают раздаваться!

Eсли вы уже удалили старые серии, то предотвратить повторную закачку старых серий можно, отжав галочку в соответсвующих местах при запуске нового торрента. По возможности, желательно не удалять старые серии как можно дольше чтобы релизёр не столько продолжал раздавать старые серии, а смог сконцентрироваться на новых.
pb.wtf



Скачать Триггер через торрент https://img15.lostpic.net/2020/02/07/d3115cdd780481ed8c2181884e4a4831.jpg Скачать фильм Триггер через торрент бесплантно в хорошем качестве Описание: Артем Стрелецкий – психолог, провокатор, практикующий «шоковый» метод психотерапии. Большинство психологов ... 9.9 10 11
Торрент: Зарегистрирован [2020-03-07 05:32] · скачан: 137 раз
Статус: √ проверено
Размер: 29.47 GB
Как cкачать? Как скачать Триггер через торрент | qTorrent

% Раздел Тема Автор DL S | L
Наши сериалы [ 9.38 GB ] Триггер / Провокатор / Сезоны: 1 / Серии: 1-16 из 16 [2018 WEB-DLRip ] bober100 Скачать
1 | 0
Наши сериалы [ 11.84 GB ] Триггер / Провокатор / Сезоны: 1 / Серии: 1-16 из 16 [2018 HDTVRip-AVC] bober100 Скачать
2 | 0
Наши сериалы [ 19.93 GB ] Триггер / Провокатор / Сезоны: 1 / Серии: 1-16 из 16 [2018 HDTVRip 720p] bober100 Скачать
1 | 1
Наши сериалы [ 9.41 GB ] Триггер / Провокатор / Сезоны: 1 / Серии: 1-16 из 16 [2018 SATRip] bober100 Скачать
1 | 0
Наши сериалы [ 9.72 GB ] Триггер / Провокатор / Сезоны: 1 / Серии: 1-16 из 16 [2018 HDTVRip] bober100 Скачать
2 | 0
Наши сериалы [ 30.98 GB ] Триггер / Провокатор / Сезоны: 1 / Серии: 1-16 из 16 [2018 HDTV 1080i] bober100 Скачать
1 | 0
Наши сериалы [ 9.83 GB ] Триггер / Провокатор / Сезоны: 1 / Серии: 1-16 из 16 [2018 WEB-DLRip-AVC] bober100 Скачать
2 | 0


Последний раз редактировалось: bober100 (2020-07-12 09:35), всего редактировалось 13 раз(а)

28-11-2019 20:33  

Отключить всю рекламу на сайте

08-02-2020 05:23 Триггер Скачать торрент  

спс за релиз сейчас заценим...молодец оч. оперативноpb.wtf



11-03-2020 04:38 Триггер Скачать торрент  

конец, конечно...немного шокировал... хотя... не знаю...фильм - один из лучших российских сериалов на сегодняшний день!!! Но, такая концовка, просто.... сами посмотрите...pb.wtf



    Дорогой пользователь! Огромная просьба, поблагодарите релизера, оцените раздачу и оставьте свои комментарий, если Вы скачали Триггер через торрент бесплатно! Внесите свою лепту в развитие PiratBit!
    Комментировать посты могут только пользователи прошедшие не сложную регистрацию
    Показать сообщения:    

    Триггер через торрент
    Скачать бесплатно Триггер
    Триггер скачать торрент
    Триггер смотреть онлайн
    Cкачать фильм Триггер бесплатно
    Триггер скачать торрент в хорошем качестве
    Триггер смотреть онлайн бесплатно в хорошем качестве


    Вы не можете начинать темы
    Вы не можете отвечать на сообщения
    Вы не можете редактировать свои сообщения
    Вы не можете удалять свои сообщения
    Вы не можете голосовать в опросах
    Вы не можете прикреплять файлы к сообщениям
    Вы можете скачивать файлы