Ссылка на приватное зеркало нашего сайта всего за 1$. Внимание количество ограничено!!!

2 сезон

iTunes

1 сезон

1

2 сезон

2 сезон

iTunes

1 сезон

RePack

30

Ultimate

ВАЖНО

ИГРА 18+

pack

RePack

MK11
pack

Забери бонус

RePack

jed

!!Акция!!

Alien_Rage

RePack

fifa19

RePack

Assassins Creed: Odyssey

RePack

NEED FOR SPEED™ PAYBACK

4 сезон

9 сезон

Бесстыжие 9 сезон

Все сериалы

все сериалы на PB.wtf

RePack

FAR CRY 5
  

Триггер / Провокатор / Сезоны: 1 / Серии: 1-16 из 16 (Дмитрий Тюрин) [2018, драма, HDTVRip] pb.wtf

Триггер через торрент pb.wtf

Раздают: 1 [ 0 KB/s ]
Размер: 9.72 GB | Добавлен: 8 мес. назад | Торрент скачан:41 раз
Скачать  

11-02-2020 15:54 Триггер Скачать торрент  

Триггер | Провокатор
Год выпуска: 2018
Страна: Россия
Жанр: драма
Продолжительность: ~ 00:50:00 серия
Субтитры: отсутствуют

Режиссер: Дмитрий Тюрин



В ролях: Максим Матвеев, Игорь Костолевский, Светлана Иванова, Виктория Маслова, Роман Маякин, Владислав Тирон, Ангелина Стречина, Марк Юсеф, Данила Дунаев, Ян Цапник, Даниил Воробьёв, Янина Малинчик, Олег Масленников-Войтов, Дарья Буткеева, Маруся Пестунова, Екатерина Соломатина, Хельга Филиппова, Екатерина Соколова-Жубер, Лиза Климова, Мария Ахметзянова, Антон Денисенко, Антонина Паперная, Сергей Гурьев, Максим Костромыкин, Екатерина Копанова, Олег Каменщиков

Описание: Артем Стрелецкий – психолог, профессиональный провокатор, практикующий «шоковый» метод психотерапии. Большинство психологов «нянчатся» с клиентами, по полгода выслушивают жалобы на жизнь, сочувствуют – и получают кругленькие суммы за курс сеансов. Артем провоцирует клиентов, оскорбляет их, смеется над ними, специально подстраивает неловкие ситуации и намеренно выталкивает из зоны психологического комфорта. Провокации активируют в психике человека желание немедленно разобраться со своими проблемами, и решение находится очень быстро – буквально за один-два сеанса. Практика Артема процветает, пока один из клиентов Стрелецкого не накладывает на себя руки. Выйдя на свободу после четырехлетнего заключения по делу о доведении до самоубийства, Артем твёрдо намеревается всё исправить – доказать свою невиновность и вернуть любимую жену Дашу...

Качество: HDTVRip
Формат: AVI

Видео: 720x400 (1.80:1), 25 fps, XviD build 73 ~1600 kbps avg, 0.22 bit/pixel
Аудио: 48 kHz, AC3 Dolby Digital, 2/0 (L,R) ch, ~192.00 kbps avg
скриншот  скриншот  скриншот  скриншот  

Общее
Полное имя : D:Trigger.HDTVRip.GeneralFilm1.Trigger.HDTVRip.GeneralFilm.avi
Формат : AVI
Формат/Информация : Audio Video Interleave
Размер файла : 642 Мбайт
Продолжительность : 49 м.
Общий поток : 1801 Кбит/сек
Программа кодирования : VirtualDubMod 1.5.10.3 | www.virtualdub-fr.org || (build 2550/release)
Библиотека кодирования : VirtualDubMod build 2550/release

Видео
Идентификатор : 0
Формат : MPEG-4 Visual
Профиль формата : Advanced Simple@L5
Параметр BVOP формата : 1
Параметр QPel формата : Нет
Параметр GMC формата : Без точки перехода
Параметр матрицы формата : Выборочная
Идентификатор кодека : XVID
Идентификатор кодека/Подсказка : XviD
Продолжительность : 49 м.
Битрейт : 1600 Кбит/сек
Ширина : 720 пикселей
Высота : 400 пикселей
Соотношение сторон : 16:9
Частота кадров : 25,000 кадров/сек
Цветовое пространство : YUV
Субдискретизация насыщенности : 4:2:0
Битовая глубина : 8 бит
Тип развёртки : Прогрессивная
Метод сжатия : С потерями
Бит/(Пиксели*Кадры) : 0.222
Размер потока : 570 Мбайт (89%)
Библиотека кодирования : XviD 1.2.1 (UTC 2008-12-04)

Аудио
Идентификатор : 1
Формат : AC-3
Формат/Информация : Audio Coding 3
Расширение режима : CM (complete main)
Параметр Endianness формата : Big
Идентификатор кодека : 2000
Продолжительность : 49 м.
Вид битрейта : Постоянный
Битрейт : 192 Кбит/сек
Каналы : 2 канала
Расположение каналов : Front: L R
Частота : 48,0 КГц
Битовая глубина : 16 бит
Метод сжатия : С потерями
Размер потока : 68,4 Мбайт (11%)
Выравнивание : Разделение по промежуткам
Продолжительность промежутка : 40 мс. (1,00 видеокадр)
Время предзагрузки промежутка : 500 мс.

Внимание! Раздача ведётся путём добавления новых серий; при каждом добавлении создаётся новый торрент. Чтобы начать докачку новой серии, пользователям необходимо сделать следующее:
(1) остановить скачивание,
(2) удалить старый торрент у себя из клиента (старые серии удалять не надо),
(3) скачать новый торрент и запустить его у себя в клиенте вместо старого, при этом указать клиенту путь в старую папку куда и должно происходить скачивание новых серий.

Ваш клиент при этом должен произвести хеширование (проверку) старой папки (если не производит сам - помогите ему сделать это), и будет докачивать только те серии которых у вас ещё нет. Старые серии при этом не удаляются, а продолжают раздаваться!

Eсли вы уже удалили старые серии, то предотвратить повторную закачку старых серий можно, отжав галочку в соответсвующих местах при запуске нового торрента. По возможности, желательно не удалять старые серии как можно дольше чтобы релизёр не столько продолжал раздавать старые серии, а смог сконцентрироваться на новых.
pb.wtf



Скачать Триггер через торрент https://b.radikal.ru/b29/2002/0e/0c464d9fac75.jpg Скачать фильм Триггер через торрент бесплантно в хорошем качестве Описание: Артем Стрелецкий – психолог, провокатор, практикующий «шоковый» метод психотерапии. Большинство психологов ... 10 10 7
Торрент: Зарегистрирован [2020-03-05 22:36] · скачан: 41 раз
Статус: √ проверено
Размер: 9.72 GB
Как cкачать? Как скачать Триггер через торрент | qTorrent

% Раздел Тема Автор DL S | L
Наши сериалы [ 9.38 GB ] Триггер / Провокатор / Сезоны: 1 / Серии: 1-16 из 16 [2018 WEB-DLRip ] bober100 Скачать
1 | 0
Наши сериалы [ 29.47 GB ] Триггер / Провокатор / Сезоны: 1 / Серии: 1-16 из 16 [2018 WEB-DL 1080p] bober100 Скачать
3 | 1
Наши сериалы [ 11.84 GB ] Триггер / Провокатор / Сезоны: 1 / Серии: 1-16 из 16 [2018 HDTVRip-AVC] bober100 Скачать
1 | 0
Наши сериалы [ 19.93 GB ] Триггер / Провокатор / Сезоны: 1 / Серии: 1-16 из 16 [2018 HDTVRip 720p] bober100 Скачать
1 | 0
Наши сериалы [ 9.41 GB ] Триггер / Провокатор / Сезоны: 1 / Серии: 1-16 из 16 [2018 SATRip] bober100 Скачать
1 | 0
Наши сериалы [ 30.98 GB ] Триггер / Провокатор / Сезоны: 1 / Серии: 1-16 из 16 [2018 HDTV 1080i] bober100 Скачать
1 | 0
Наши сериалы [ 9.83 GB ] Триггер / Провокатор / Сезоны: 1 / Серии: 1-16 из 16 [2018 WEB-DLRip-AVC] bober100 Скачать
3 | 0

28-11-2019 20:33  

Отключить всю рекламу на сайте

    Дорогой пользователь! Огромная просьба, поблагодарите релизера, оцените раздачу и оставьте свои комментарий, если Вы скачали Триггер через торрент бесплатно! Внесите свою лепту в развитие PiratBit!
    Комментировать посты могут только пользователи прошедшие не сложную регистрацию
    Показать сообщения:    

    Триггер через торрент
    Скачать бесплатно Триггер
    Триггер скачать торрент
    Триггер смотреть онлайн
    Cкачать фильм Триггер бесплатно
    Триггер скачать торрент в хорошем качестве
    Триггер смотреть онлайн бесплатно в хорошем качестве


    Вы не можете начинать темы
    Вы не можете отвечать на сообщения
    Вы не можете редактировать свои сообщения
    Вы не можете удалять свои сообщения
    Вы не можете голосовать в опросах
    Вы не можете прикреплять файлы к сообщениям
    Вы можете скачивать файлы