Доктор Стрэндж

Лицензия

Добыча

Дубляж

Уэнсдэй

1 сезон

Тор

Дубляж

В эфире

Дубляж

Там, где раки поют

MVO

Властелин колец

1 сезон

Deluxe

pack

Рекомендуем

30

Пиратка

ВАЖНО

ВАЖНО

Ghostwire

Пиратка

jed

RePack

nioh2

RePack

RDR2

RePack

NEED FOR SPEED™ PAYBACK

RePack

скачать торрент

Кинопоиск HD

Острые козырьки 6 сезон

6 сезон

FAR CRY 6

RePack

скачать торрент

Лицензия

скачать торрент

MVO

1

1 сезон

скачать торрент

1 сезон

скачать торрент

Лицензия

  

Гемини 3Д / Gemini Man 3D (Энг Ли) [2019, фантастика, боевик, триллер, драма, BDRip 1080p, (Half OverUnder)] Дубляж (rus, ukr) [Лицензия]

Гемини 3Д через торрент pb.wtf

Размер: 9.49 GB | Добавлен: 2 года 9 мес. назад | Торрент скачан:222 раза
Смотреть онлайн | Скачать   

13-02-2020 02:18 Гемини 3Д Скачать торрент  

Гемини 3Д | Gemini Man 3D«Кто тебя спасёт от самого себя?»
Год выпуска: 2019
Страна: Китай, США
Студия: Skydance Media, Jerry Bruckheimer Films, Fosun Group Forever Pictures
Жанр: фантастика, боевик, триллер, драма
Продолжительность: 01:57:00
Перевод: Дублированный | Лицензия
Субтитры вшитые (softsub):
#1 - Русские Форсированные (включены по умолчанию)
#2 - Русские Полные
#3 - Украинские Форсированные
#4 - Украинские Полные
#5 - English Full

Внешние (UTF-8):
#1 - Русские Форсированные (включены по умолчанию)
#2 - Русские Полные
#3 - Украинские Форсированные

Режиссер: Энг Ли

rating

В ролях: Уилл Смит, Мэри Элизабет Уинстэд, Клайв Оуэн, Бенедикт Вонг, Дуглас Ходж, Теодора Вулли, Ральф Браун, Линда Эмонд, Андреа Суч, Илья Волох

Описание: Генри Броган, первоклассный киллер, становится мишенью таинственного оперативника, который, кажется, знает каждый его шаг наперед...

Качество: BDRip 1080p
Формат: MKV

Видео: AVC / 1920х1080p / 23,976 fps / 10.0 Mbps
Аудио #01: Русский / AC3 / 48 KHz / 5.1 ch / 640 Kbps (Дубляж - BD Eur)
Аудио #02: Украинский / AC3 / 48 KHz / 5.1 ch / 384 Kbps (Дубляж - iTunes)
Аудио #03: Английский / AC3 / 48 KHz / 5.1 ch / 640 Kbps (Original - BD 3D Ger)
Формат 3D: Half OverUnder / Вертикальная анаморфная стереопара
Порядок ракурсов: левый ракурс первый
скриншот  скриншот  скриншот  скриншот  

General
Unique ID : 223192095872831384780677180370005663842 (0xA7E93BEC9D5ABEAF885F4F56FEBE2062)
Complete name : D:GeminiMan(2019)3D-hOU(Ash61)GeminiMan(2019)3D-hOU(Ash61).mkv
Format : Matroska
Format version : Version 2
File size : 9.49 GiB
Duration : 1 h 57 min
Overall bit rate : 11.6 Mb/s
Movie name : Гемини / Gemini Man (2019) in 3D
Encoded date : UTC 2020-02-12 20:05:33
Writing application : mkvmerge v5.8.0 ('No Sleep / Pillow') built on Sep 2 2012 15:37:04
Writing library : libebml v1.2.3 + libmatroska v1.3.0

Video
ID : 1
Format : AVC
Format/Info : Advanced Video Codec
Format profile : [email protected]
Format settings : CABAC / 4 Ref Frames
Format settings, CABAC : Yes
Format settings, Reference : 4 frames
Codec ID : V_MPEG4/ISO/AVC
Duration : 1 h 57 min
Bit rate : 10 000 kb/s
Width : 1 920 pixels
Height : 1 080 pixels
Display aspect ratio : 16:9
Frame rate mode : Constant
Frame rate : 23.976 (24000/1001) FPS
Color space : YUV
Chroma subsampling : 4:2:0
Bit depth : 8 bits
Scan type : Progressive
Bits/(Pixel*Frame) : 0.201
Stream size : 7.94 GiB (84%)
Title : BDRip by Ash61
Writing library : x264 core 146 r2538 121396c
Encoding settings : cabac=1 / ref=4 / deblock=1:-3:-3 / analyse=0x3:0x113 / me=umh / subme=10 / psy=1 / psy_rd=1.00:0.00 / mixed_ref=1 / me_range=32 / chroma_me=1 / trellis=2 / 8x8dct=1 / cqm=0 / deadzone=21,11 / fast_pskip=0 / chroma_qp_offset=-2 / threads=12 / lookahead_threads=2 / sliced_threads=0 / nr=0 / decimate=0 / interlaced=0 / bluray_compat=0 / constrained_intra=0 / bframes=9 / b_pyramid=2 / b_adapt=2 / b_bias=0 / direct=3 / weightb=1 / open_gop=0 / weightp=2 / keyint=250 / keyint_min=23 / scenecut=40 / intra_refresh=0 / rc_lookahead=60 / rc=2pass / mbtree=0 / bitrate=10000 / ratetol=1.0 / qcomp=0.70 / qpmin=0 / qpmax=69 / qpstep=4 / cplxblur=20.0 / qblur=0.5 / vbv_maxrate=40000 / vbv_bufsize=30000 / nal_hrd=none / filler=0 / frame-packing=4 / ip_ratio=1.40 / pb_ratio=1.30 / aq=1:0.70
Language : English
Default : Yes
Forced : No

Audio #1
ID : 2
Format : AC-3
Format/Info : Audio Coding 3
Commercial name : Dolby Digital
Codec ID : A_AC3
Duration : 1 h 57 min
Bit rate mode : Constant
Bit rate : 640 kb/s
Channel(s) : 6 channels
Channel layout : L R C LFE Ls Rs
Sampling rate : 48.0 kHz
Frame rate : 31.250 FPS (1536 SPF)
Compression mode : Lossy
Stream size : 536 MiB (6%)
Title : Дубляж (BD Eur)
Language : Russian
Service kind : Complete Main
Default : Yes
Forced : No

Audio #2
ID : 3
Format : AC-3
Format/Info : Audio Coding 3
Commercial name : Dolby Digital
Codec ID : A_AC3
Duration : 1 h 57 min
Bit rate mode : Constant
Bit rate : 384 kb/s
Channel(s) : 6 channels
Channel layout : L R C LFE Ls Rs
Sampling rate : 48.0 kHz
Frame rate : 31.250 FPS (1536 SPF)
Compression mode : Lossy
Stream size : 321 MiB (3%)
Title : Дубляж (iTunes)
Language : Ukrainian
Service kind : Complete Main
Default : No
Forced : No

Audio #3
ID : 4
Format : AC-3
Format/Info : Audio Coding 3
Commercial name : Dolby Digital
Codec ID : A_AC3
Duration : 1 h 57 min
Bit rate mode : Constant
Bit rate : 640 kb/s
Channel(s) : 6 channels
Channel layout : L R C LFE Ls Rs
Sampling rate : 48.0 kHz
Frame rate : 31.250 FPS (1536 SPF)
Compression mode : Lossy
Stream size : 536 MiB (6%)
Title : Original (BD 3D Ger)
Language : English
Service kind : Complete Main
Default : No
Forced : No

Text #1
ID : 5
Format : UTF-8
Codec ID : S_TEXT/UTF8
Codec ID/Info : UTF-8 Plain Text
Title : Форсированные
Language : Russian
Default : Yes
Forced : No

Text #2
ID : 6
Format : UTF-8
Codec ID : S_TEXT/UTF8
Codec ID/Info : UTF-8 Plain Text
Title : Полные
Language : Russian
Default : No
Forced : No

Text #3
ID : 7
Format : UTF-8
Codec ID : S_TEXT/UTF8
Codec ID/Info : UTF-8 Plain Text
Title : Форсированные
Language : Ukrainian
Default : No
Forced : No

Text #4
ID : 8
Format : UTF-8
Codec ID : S_TEXT/UTF8
Codec ID/Info : UTF-8 Plain Text
Title : Полные
Language : Ukrainian
Default : No
Forced : No

Text #5
ID : 9
Format : UTF-8
Codec ID : S_TEXT/UTF8
Codec ID/Info : UTF-8 Plain Text
Title : Full
Language : English
Default : No
Forced : No

Menu
00:00:00.000 : :1
00:07:21.650 : :2
00:15:31.681 : :3
00:18:13.134 : :4
00:24:39.520 : :5
00:30:59.441 : :6
00:34:09.464 : :7
00:42:40.308 : :8
00:50:24.897 : :9
00:56:45.819 : :10
01:03:30.306 : :11
01:08:13.172 : :12
01:16:45.935 : :13
01:24:43.996 : :14
01:30:04.733 : :15
01:34:00.927 : :16
01:42:14.462 : :17
01:47:07.588 : :18




Скачать Гемини 3Д через торрент https://b.radikal.ru/b05/2002/dc/c139d564cd41.png Скачать, смотреть онлайн Гемини 3Д бесплантно в хорошем качестве Описание: Генри Броган, первоклассный киллер, становится мишенью таинственного оперативника, который, кажется, знает каждый его шаг ... 8.2 10 5
Торрент: Зарегистрирован [2020-02-13 02:18] · скачан: 222 раз
Статус: √ проверено
Размер: 9.49 GB
Как cкачать? Как скачать Гемини 3Д через торрент | UTorrent

% Раздел Тема Автор DL S | L
3D Фильмы [ 15.81 GB ] Гемини в 3Д / Gemini Man 3D | | 1080p serega768 Скачать
1 | 0

28-11-2019 20:33  


Отключить вcю реклaмy на сайте, в т.ч. и в плеере онлайн просмотра!

    Дорогой пользователь! Огромная просьба, поблагодарите релизера, оцените раздачу и оставьте свои комментарий, если Вы скачали Гемини 3Д через торрент бесплатно!!
    Комментировать посты могут только пользователи прошедшие не сложную регистрацию
    Показать сообщения:    


    Гемини 3Д через торрент
    Скачать бесплатно Гемини 3Д
    Гемини 3Д скачать торрент
    Гемини 3Д смотреть онлайн
    Cкачать фильм Гемини 3Д бесплатно
    Гемини 3Д скачать торрент в хорошем качестве
    Гемини 3Д смотреть онлайн бесплатно в хорошем качестве
    Вы не можете начинать темы
    Вы не можете отвечать на сообщения
    Вы не можете редактировать свои сообщения
    Вы не можете удалять свои сообщения
    Вы не можете голосовать в опросах
    Вы не можете прикреплять файлы к сообщениям
    Вы можете скачивать файлы
    Гемини 3Д / Gemini Man 3D [2019, фантастика, боевик, триллер, драма, BDRip 1080p, ] Дубляж [Лицензия] смотреть онлайн, скачать торрент picoco.icu