Всегда рабочее зеркало без VPN и Proxy просто перед .vidak.icu напиши любое слово или цифру, Пример http://9vh6.vidak.icu

MVO

MVO

1 сезон

1

1 сезон

iTunes

1 сезон

13

1 сезон

Deluxe

pack

Рекомендуем

Repack

30

ВАЖНО

RePack

MK11

RePack

jed

RePack

fifa19

RePack

RDR2

RePack

NEED FOR SPEED™ PAYBACK

Кинопоиск HD

6 сезон

 Острые козырьки 6 сезон

Все сериалы

все сериалы на PB.wtf

RePack

FAR CRY 5
  
Magnet ссылка

Датские Школьницы 6 / Danish Schoolgirls #6 (Color Climax) [1970 г., Retro, All sex, Anal, Classic, Hairy, VHS-Rip, Оригинал] pb.wtf

Датские Школьницы 6 через торрент pb.wtf

Размер: 2 GB | Добавлен: 2 года 5 мес. назад | Торрент скачан:234 раза
Смотреть онлайн Датские Школьницы 6 | Скачать    Ребята, помогите собрать деньги на оплату серверов!!!

19-02-2020 07:59 Датские Школьницы 6 Скачать торрент  

Датские Школьницы 6 / Danish Schoolgirls #6Год выпуска: 1970
Страна: Дания
Жанр: Retro, All sex, Anal, Classic, Hairy
Продолжительность: 02:51:30
Перевод: Оригинал (немецкий)
Субтитры: отсутствуют

Режиссер: Color Climax
В ролях: нет информации

Описание: Сборник короткометражек от студии Color Climax

Качество: VHS-Rip
Формат: AVI
Видео кодек: XviD
Аудио кодек: AC3
Видео: 512x384 (4:3), 29.970 fps ~ 1465 Kbps
Аудио: 48 KHz, 2 ch ~ 192 Kb/s
скриншот   скриншот   скриншот   скриншот   скриншот   скриншот   скриншот  

General
Complete name : J:\wot\Danish Schoolgirls 6.avi
Format : AVI
Format/Info : Audio Video Interleave
Format profile : OpenDML
File size : 2.00 GiB
Duration : 2h 51mn
Overall bit rate : 1 666 Kbps
Writing application : VirtualDubMod 1.5.4.1 (build 2178/release)
Writing library : VirtualDubMod build 2178/release

Video
ID : 0
Format : MPEG-4 Visual
Format profile : Advanced [email protected]
Format settings, BVOP : 1
Format settings, QPel : No
Format settings, GMC : No warppoints
Format settings, Matrix : Custom
Codec ID : XVID
Codec ID/Hint : XviD
Duration : 2h 51mn
Bit rate : 1 464 Kbps
Width : 512 pixels
Height : 384 pixels
Display aspect ratio : 4:3
Frame rate : 29.970 fps
Color space : YUV
Chroma subsampling : 4:2:0
Bit depth : 8 bits
Scan type : Progressive
Compression mode : Lossy
Bits/(Pixel*Frame) : 0.248
Stream size : 1.75 GiB (88%)
Writing library : XviD 1.2.1 (UTC 2008-12-04)

Audio
ID : 1
Format : AC-3
Format/Info : Audio Coding 3
Mode extension : CM (complete main)
Format settings, Endianness : Big
Codec ID : 2000
Duration : 2h 51mn
Bit rate mode : Constant
Bit rate : 192 Kbps
Channel(s) : 2 channels
Channel positions : Front: L R
Sampling rate : 48.0 KHz
Compression mode : Lossy
Stream size : 236 MiB (12%)
Alignment : Split accross interleaves
Interleave, duration : 96 ms (2.88 video frames)
Interleave, preload duration : 96 ms
Language : English

pb.wtf



pack Скачать Датские Школьницы 6 через торрент https://pic1.kartinco.top/images/12/mkfsj.jpg Скачать, смотреть онлайн Датские Школьницы 6 бесплантно в хорошем качестве Описание: Сборник короткометражек от студии Color ... 9.3 10 8
Info! Золотая раздача, скачанное не засчитывается.
Торрент: Зарегистрирован [2020-02-19 07:59] · скачан: 234 раз
Статус: √ проверено
Размер: 2 GB
Как cкачать? Как скачать Датские Школьницы 6 через торрент | UTorrent

28-11-2019 20:33  

Отключить вcю реклaмy на сайте

    Дорогой пользователь! Огромная просьба, поблагодарите релизера, оцените раздачу и оставьте свои комментарий, если Вы скачали Датские Школьницы 6 через торрент бесплатно!
    Комментировать посты могут только пользователи прошедшие не сложную регистрацию
    Показать сообщения:    

    Датские Школьницы 6 через торрент
    Скачать бесплатно Датские Школьницы 6
    Датские Школьницы 6 скачать торрент
    Датские Школьницы 6 смотреть онлайн
    Cкачать фильм Датские Школьницы 6 бесплатно
    Датские Школьницы 6 скачать торрент в хорошем качестве
    Датские Школьницы 6 смотреть онлайн бесплатно в хорошем качестве


    Вы не можете начинать темы
    Вы не можете отвечать на сообщения
    Вы не можете редактировать свои сообщения
    Вы не можете удалять свои сообщения
    Вы не можете голосовать в опросах
    Вы не можете прикреплять файлы к сообщениям
    Вы можете скачивать файлы