Доктор Стрэндж

Лицензия

Добыча

Дубляж

Дом дракона

1 сезон

Тор

Дубляж

В эфире

Дубляж

Там, где раки поют

MVO

Властелин колец

1 сезон

Ultimate

pack

Рекомендуем

30

Пиратка

ВАЖНО

ВАЖНО

Ghostwire

Пиратка

jed

RePack

nioh2

RePack

RDR2

RePack

NEED FOR SPEED™ PAYBACK

RePack

скачать торрент

Кинопоиск HD

Острые козырьки 6 сезон

6 сезон

FAR CRY 6

RePack

скачать торрент

Лицензия

скачать торрент

MVO

1

1 сезон

скачать торрент

1 сезон

скачать торрент

Лицензия

  

Полицейский роман / Серии: 1-2 из 2 (Наталья Хлопецкая) [2020, Криминал, мелодрама, WEB-DLRip-AVC]

Полицейский роман через торрент pb.wtf

Размер: 1.14 GB | Добавлен: 2 года 9 мес. назад | Торрент скачан:58 раз
Смотреть онлайн | Скачать   

22-02-2020 07:49 Полицейский роман Скачать торрент  

Полицейский роман
Год выпуска: 2020
Страна: Россия
Жанр: Криминал, мелодрама
Продолжительность: ~ 00:46:00
Субтитры: отсутствуют

Режиссер: Наталья Хлопецкая

В ролях: Алексей Матошин, Татьяна Тимакова, Ирина Баринова, Равиль Насретдинов, Сергей Петров (II), Александр Печенин, Надежда Игошина, Александр Кольцов, Владимир Демидов

Описание: Оперативник убойного отдела Сергей Бачурин – суперпрофессионал. Упрямый, жесткий, часто идущий против системы. А в личной жизни – циник и грубиян с множеством служебных романов. Никто и не догадывается, что он до сих пор любит жену, давно ушедшую от него к другому. Расследуя убийство известной журналистки, Бачурин неожиданно начинает подозревать, что преступление имеет связь с его собственным прошлым.

Качество: WEB-DLRip-AVC
Формат: MKV

Видео: MPEG-4 AVC, ~ 1600 Кбит/с, 1024x576, 25 кадр/с
Аудио: 48.0 kHz, AC3 Dolby Digital, 2/0 (L,R) ch, ~ 192 kbps
скриншот  скриншот  скриншот  скриншот  скриншот  

General
Unique ID : 244580694607824031742040043282815184451 (0xB80087425DD8E01BA9725F0E410EEE43)
Complete name : F:\Полицейский роман.(2019).WEB-DLRip.(AVC).Files-x\01.Полицейский роман.(2019).WEB-DLRip.(AVC).by.Серый1779.Files-x.mkv
Format : Matroska
Format version : Version 2
File size : 585 MiB
Duration : 45 min 39 s
Overall bit rate : 1 792 kb/s
Encoded date : UTC 2020-02-21 21:24:03
Writing application : mkvmerge v7.8.0 ('River Man') 32bit built on Apr 3 2015 12:11:22
Writing library : libebml v1.3.1 + libmatroska v1.4.2

Video
ID : 1
Format : AVC
Format/Info : Advanced Video Codec
Format profile : [email protected]
Format settings : CABAC / 9 Ref Frames
Format settings, CABAC : Yes
Format settings, RefFrames : 9 frames
Codec ID : V_MPEG4/ISO/AVC
Duration : 45 min 39 s
Bit rate : 1 600 kb/s
Width : 1 024 pixels
Height : 576 pixels
Display aspect ratio : 16:9
Frame rate mode : Constant
Frame rate : 25.000 FPS
Color space : YUV
Chroma subsampling : 4:2:0
Bit depth : 8 bits
Scan type : Progressive
Bits/(Pixel*Frame) : 0.109
Stream size : 511 MiB (87%)
Writing library : x264 core 146 r2538 121396c
Encoding settings : cabac=1 / ref=9 / deblock=1:-2:-1 / analyse=0x3:0x133 / me=umh / subme=9 / psy=1 / psy_rd=1.00:0.15 / mixed_ref=1 / me_range=32 / chroma_me=1 / trellis=2 / 8x8dct=1 / cqm=0 / deadzone=21,11 / fast_pskip=0 / chroma_qp_offset=-3 / threads=18 / lookahead_threads=3 / sliced_threads=0 / nr=0 / decimate=1 / interlaced=0 / bluray_compat=0 / constrained_intra=0 / bframes=9 / b_pyramid=2 / b_adapt=2 / b_bias=0 / direct=1 / weightb=1 / open_gop=0 / weightp=2 / keyint=250 / keyint_min=25 / scenecut=40 / intra_refresh=0 / rc=2pass / mbtree=0 / bitrate=1600 / ratetol=1.0 / qcomp=0.60 / qpmin=0 / qpmax=69 / qpstep=4 / cplxblur=20.0 / qblur=0.5 / ip_ratio=1.40 / pb_ratio=1.30 / aq=2:1.00
Default : Yes
Forced : No
Color range : Limited
Color primaries : BT.709
Transfer characteristics : BT.709
Matrix coefficients : BT.709

Audio
ID : 2
Format : AC-3
Format/Info : Audio Coding 3
Format settings, Endianness : Big
Codec ID : A_AC3
Duration : 45 min 39 s
Bit rate mode : Constant
Bit rate : 192 kb/s
Channel(s) : 2 channels
Channel positions : Front: L R
Sampling rate : 44.1 kHz
Frame rate : 28.711 FPS (1536 SPF)
Bit depth : 16 bits
Compression mode : Lossy
Stream size : 62.7 MiB (11%)
Service kind : Complete Main
Default : Yes
Forced : No




Скачать Полицейский роман через торрент https://i111.fastpic.ru/big/2020/0221/21/5075b3b64aa8f6cb219305510d014a21.jpg Скачать, смотреть онлайн Полицейский роман бесплантно в хорошем качестве Описание: Оперативник убойного отдела Сергей Бачурин – суперпрофессионал. Упрямый, жесткий, часто идущий против системы. А в личной жизни – ... 10 10 3
Торрент: Зарегистрирован [2020-02-22 07:49] · скачан: 58 раз
Статус: √ проверено
Размер: 1.14 GB
Как cкачать? Как скачать Полицейский роман через торрент | UTorrent

% Раздел Тема Автор DL S | L
Наши сериалы [ 1.15 GB ] Полицейский роман / Серии: 1-2 из 2 | | DLRip bober100 Скачать
1 | 0
Наши сериалы [ 1.06 GB ] Полицейский роман / Серии: 1-2 из 2 | | SATRip-AVC aleksan55 Скачать
1 | 0

28-11-2019 20:33  


Отключить вcю реклaмy на сайте, в т.ч. и в плеере онлайн просмотра!

    Дорогой пользователь! Огромная просьба, поблагодарите релизера, оцените раздачу и оставьте свои комментарий, если Вы скачали Полицейский роман через торрент бесплатно!!
    Комментировать посты могут только пользователи прошедшие не сложную регистрацию
    Показать сообщения:    


    Полицейский роман через торрент
    Скачать бесплатно Полицейский роман
    Полицейский роман скачать торрент
    Полицейский роман смотреть онлайн
    Cкачать фильм Полицейский роман бесплатно
    Полицейский роман скачать торрент в хорошем качестве
    Полицейский роман смотреть онлайн бесплатно в хорошем качестве
    Вы не можете начинать темы
    Вы не можете отвечать на сообщения
    Вы не можете редактировать свои сообщения
    Вы не можете удалять свои сообщения
    Вы не можете голосовать в опросах
    Вы не можете прикреплять файлы к сообщениям
    Вы можете скачивать файлы
    Полицейский роман / Серии: 1-2 из 2 [2020, Криминал, мелодрама, WEB-DLRip-AVC] смотреть онлайн, скачать торрент picoco.icu