Всегда рабочее зеркало без VPN и Proxy просто перед .vidak.icu напиши любое слово или цифру, Пример http://aykf.vidak.icu

Лицензия

MVO

1 сезон

1

1 сезон

iTunes

1 сезон

13

1 сезон

Deluxe

pack

Рекомендуем

Repack

30

ВАЖНО

RePack

MK11

RePack

jed

RePack

fifa19

RePack

RDR2

RePack

NEED FOR SPEED™ PAYBACK

Кинопоиск HD

6 сезон

 Острые козырьки 6 сезон

Все сериалы

все сериалы на PB.wtf

RePack

FAR CRY 5
  
Magnet ссылка

Похотливые Чувства / Lustful Feelings (Kemal Horulu) [1977 г., Orgy, All Sex, Feature, Lesbians, Oral, Retro, Classic, WEBRip-AVC, Оригинал] pb.wtf

Похотливые Чувства через торрент pb.wtf

Размер: 1.75 GB | Добавлен: 2 года 5 мес. назад | Торрент скачан:254 раза
Смотреть онлайн Похотливые Чувства | Скачать    Ребята, помогите собрать деньги на оплату серверов!!!

22-02-2020 13:38 Похотливые Чувства Скачать торрент  

Похотливые Чувства / Lustful FeelingsГод выпуска: 1977
Страна: США
Жанр: Orgy, All Sex, Feature, Lesbians, Oral, Retro, Classic
Продолжительность: 01:33:35
Перевод: оригинал (английский)
Субтитры: отсутствуют

Студия: Kemal Enterprises Inc.
Режиссер: Kemal Horulu
В ролях: Lesllie Bovee, Jamie Gillis, Terri Hall, Ras Kean, Eva Henderson, Bobby Astyr, Nancy Dare, Helen Madigan, Robert Kerman, Edward B. Davis, Jimmy Ray, Thomas, Lee Dupree, Rober Fox, Herschel Savage

rating

Описание: Дилер наркотиков Тони должен мафиози значительную сумму денег, и поэтому он убеждает свою прекрасную подругу Джоанну поработать в качестве обнаженной модели для того, чтобы она заработала необходимые денежные средства, чтобы погасить свои долги. Вместо этого Джоанна решила заработать став проституткой. Со временем Джоанна понимает, что любит свою новую работы...

Качество: WEBRip-AVC
Формат: MKV
Видео кодек: AVC
Видео: 750x406 (1.85:1) 23.976 fps ~ 2465 Kbps
Аудио: 48 KHz, 1 ch ~160 Kb/s
скриншот   скриншот   скриншот   скриншот   скриншот   скриншот  

General
Unique ID : 188350543312714952470306008770479788946 (0x8DB2FEC18B6B1FF28F98934BBD321392)
Complete name : J:\wot\Lustful Feelings (1977).mkv
Format : Matroska
Format version : Version 2
File size : 1.75 GiB
Duration : 1h 33mn
Overall bit rate : 2 678 Kbps
Encoded date : UTC 2016-06-24T19:28:12Z
Writing application : HandBrake 0.10.5 2016021100
Writing library : Lavf55.12.0

Video
ID : 1
Format : AVC
Format/Info : Advanced Video Codec
Format profile : [email protected]
Format settings, CABAC : Yes
Format settings, ReFrames : 16 frames
Codec ID : V_MPEG4/ISO/AVC
Duration : 1h 33mn
Bit rate : 2 465 Kbps
Width : 750 pixels
Height : 406 pixels
Display aspect ratio : 1.85:1
Frame rate mode : Constant
Frame rate : 23.976 fps
Color space : YUV
Chroma subsampling : 4:2:0
Bit depth : 8 bits
Scan type : Progressive
Bits/(Pixel*Frame) : 0.338
Stream size : 1.61 GiB (92%)
Writing library : x264 core 142 r2479 dd79a61
Encoding settings : cabac=1 / ref=16 / deblock=1:-1:-1 / analyse=0x1:0x131 / me=tesa / subme=11 / psy=1 / psy_rd=1.00:0.15 / mixed_ref=1 / me_range=24 / chroma_me=1 / trellis=2 / 8x8dct=0 / cqm=0 / deadzone=21,11 / fast_pskip=0 / chroma_qp_offset=-3 / threads=12 / lookahead_threads=3 / sliced_threads=0 / nr=0 / decimate=1 / interlaced=0 / bluray_compat=0 / constrained_intra=0 / bframes=16 / b_pyramid=2 / b_adapt=2 / b_bias=0 / direct=3 / weightb=1 / open_gop=0 / weightp=2 / keyint=240 / keyint_min=24 / scenecut=40 / intra_refresh=0 / rc_lookahead=60 / rc=crf / mbtree=1 / crf=18.0 / qcomp=0.60 / qpmin=0 / qpmax=69 / qpstep=4 / vbv_maxrate=20000 / vbv_bufsize=25000 / crf_max=0.0 / nal_hrd=none / filler=0 / ip_ratio=1.40 / aq=1:1.00
Default : Yes
Forced : No
Color range : Limited
Color primaries : BT.709
Transfer characteristics : BT.709
Matrix coefficients : BT.709

Audio
ID : 2
Format : AC-3
Format/Info : Audio Coding 3
Mode extension : CM (complete main)
Format settings, Endianness : Big
Codec ID : A_AC3
Duration : 1h 33mn
Bit rate mode : Constant
Bit rate : 160 Kbps
Channel(s) : 1 channel
Channel positions : Front: C
Sampling rate : 48.0 KHz
Compression mode : Lossy
Delay relative to video : 27ms
Stream size : 107 MiB (6%)
Title : Mono
Default : Yes
Forced : No

pb.wtf



pack Скачать Похотливые Чувства через торрент https://pic1.kartinco.top/images/12/enyy4.jpg Скачать, смотреть онлайн Похотливые Чувства бесплантно в хорошем качестве Описание: Дилер наркотиков Тони должен мафиози значительную сумму денег, и поэтому он убеждает свою прекрасную подругу Джоанну поработать в ... 8.3 10 4
Info! Золотая раздача, скачанное не засчитывается.
Торрент: Зарегистрирован [2020-02-22 13:38] · скачан: 254 раз
Статус: √ проверено
Размер: 1.75 GB
Как cкачать? Как скачать Похотливые Чувства через торрент | UTorrent

28-11-2019 20:33  

Отключить вcю реклaмy на сайте

    Дорогой пользователь! Огромная просьба, поблагодарите релизера, оцените раздачу и оставьте свои комментарий, если Вы скачали Похотливые Чувства через торрент бесплатно!
    Комментировать посты могут только пользователи прошедшие не сложную регистрацию
    Показать сообщения:    

    Похотливые Чувства через торрент
    Скачать бесплатно Похотливые Чувства
    Похотливые Чувства скачать торрент
    Похотливые Чувства смотреть онлайн
    Cкачать фильм Похотливые Чувства бесплатно
    Похотливые Чувства скачать торрент в хорошем качестве
    Похотливые Чувства смотреть онлайн бесплатно в хорошем качестве


    Вы не можете начинать темы
    Вы не можете отвечать на сообщения
    Вы не можете редактировать свои сообщения
    Вы не можете удалять свои сообщения
    Вы не можете голосовать в опросах
    Вы не можете прикреплять файлы к сообщениям
    Вы можете скачивать файлы