Доктор Стрэндж

Лицензия

Добыча

Дубляж

Уэнсдэй

1 сезон

Тор

Дубляж

В эфире

Дубляж

Там, где раки поют

MVO

Властелин колец

1 сезон

Deluxe

pack

Рекомендуем

30

Пиратка

ВАЖНО

ВАЖНО

Ghostwire

Пиратка

jed

RePack

nioh2

RePack

RDR2

RePack

NEED FOR SPEED™ PAYBACK

RePack

скачать торрент

Кинопоиск HD

Острые козырьки 6 сезон

6 сезон

FAR CRY 6

RePack

скачать торрент

Лицензия

скачать торрент

MVO

1

1 сезон

скачать торрент

1 сезон

скачать торрент

Лицензия

  

Потерянный остров (Денис Силяков) [2019, драма, триллер, детектив, WEB-DL 1080p] [iTunes]

Потерянный остров через торрент pb.wtf

Размер: 3.33 GB | Добавлен: 2 года 9 мес. назад | Торрент скачан:140 раз
Смотреть онлайн | Скачать   

10-04-2019 15:25 Потерянный остров Скачать торрент  

Потерянный остров Год выпуска: 2019
Страна: Россия
Жанр: драма, триллер, детектив
Продолжительность: 01:26:36
Перевод: Не требуется | iTunes
Субтитры: отсутствуют

Режиссер: Денис Силяков

rating

В ролях: Даниил Масленников, Наталья Фрей, Татьяна Догилева, Дмитрий Астрахан, Георгий Назаренко, Илья Ермолов, Юрий Долгинцов, Марина Черкунова

Описание: Столичный журналист Игорь Воеводин прибывает на отдаленный дальневосточный остров, чтобы сделать репортаж о рыбацком поселении, в котором нашли своё последнее пристанище 12 человек, окружённых дикой природой в бескрайнем океане. Вскоре выясняется, что журналиста все только и ждут. Оторванный от большой земли, он оказывается во власти местных жителей и притягательной хозяйки острова.

Качество: WEB-DL 1080p
Формат: MKV

Видео: MPEG-4 AVC, 5120 Кбит/с, 1920x1080
Аудио: AC3, 6 ch, 384 Кбит/с
скриншот  скриншот  скриншот  скриншот  

Format : Matroska
Format version : Version 4 / Version 2
File size : 3.33 GiB
Duration : 1 h 26 min
Overall bit rate : 5 497 kb/s
Movie name : ELEKTRI4KA.UNIONGANG
Encoded date : UTC 2020-02-23 22:11:33
Writing application : mkvmerge v8.3.0 ('Over the Horizon') 64bit
Writing library : libebml v1.3.1 + libmatroska v1.4.2

Video
ID : 1
Format : AVC
Format/Info : Advanced Video Codec
Format profile : [email protected]
Format settings, CABAC : Yes
Format settings, Reference frames : 4 frames
Codec ID : V_MPEG4/ISO/AVC
Duration : 1 h 26 min
Bit rate : 5 120 kb/s
Width : 1 920 pixels
Height : 1 080 pixels
Display aspect ratio : 16:9
Frame rate mode : Constant
Frame rate : 25.000 FPS
Color space : YUV
Chroma subsampling : 4:2:0
Bit depth : 8 bits
Scan type : Progressive
Bits/(Pixel*Frame) : 0.099
Stream size : 3.09 GiB (93%)
Writing library : x264 core 148
Encoding settings : cabac=1 / ref=3 / deblock=1:0:0 / analyse=0x3:0x113 / me=hex / subme=7 / psy=1 / psy_rd=1.00:0.00 / mixed_ref=1 / me_range=16 / chroma_me=1 / trellis=1 / 8x8dct=1 / cqm=0 / deadzone=21,11 / fast_pskip=1 / chroma_qp_offset=-2 / threads=34 / lookahead_threads=5 / sliced_threads=0 / nr=0 / decimate=1 / interlaced=0 / bluray_compat=0 / constrained_intra=0 / bframes=6 / b_pyramid=2 / b_adapt=1 / b_bias=0 / direct=1 / weightb=1 / open_gop=0 / weightp=2 / keyint=50 / keyint_min=26 / scenecut=0 / intra_refresh=0 / rc_lookahead=40 / rc=2pass / mbtree=1 / bitrate=5120 / ratetol=1.0 / qcomp=0.60 / qpmin=0 / qpmax=69 / qpstep=4 / cplxblur=20.0 / qblur=0.5 / vbv_maxrate=7680 / vbv_bufsize=20480 / nal_hrd=none / filler=0 / ip_ratio=1.40 / aq=1:1.00
Default : Yes
Forced : No

Audio
ID : 2
Format : AC-3
Format/Info : Audio Coding 3
Mode extension : CM (complete main)
Format settings, Endianness : Big
Codec ID : A_AC3
Duration : 1 h 26 min
Bit rate mode : Constant
Bit rate : 384 kb/s
Channel(s) : 6 channels
Channel positions : Front: L C R, Side: L R, LFE
Sampling rate : 48.0 kHz
Frame rate : 31.250 FPS (1536 spf)
Bit depth : 16 bits
Compression mode : Lossy
Stream size : 238 MiB (7%)
Title : iTunes
Language : Russian
Default : Yes
Forced : No




Скачать Потерянный остров через торрент https://c.radikal.ru/c22/1904/68/242ee4019603.jpg Скачать, смотреть онлайн Потерянный остров бесплантно в хорошем качестве Описание: Столичный журналист Игорь Воеводин прибывает на отдаленный дальневосточный остров, чтобы сделать репортаж о рыбацком поселении, в ... 8.5 10 13
Торрент: Зарегистрирован [2020-02-24 01:10] · скачан: 140 раз
Статус: √ проверено
Размер: 3.33 GB
Как cкачать? Как скачать Потерянный остров через торрент | UTorrent

% Раздел Тема Автор DL S | L
Наши фильмы 2018-2019 [ 1.46 GB ] Потерянный остров | iTunes | DLRip killermax2013 Скачать
1 | 0
Наши фильмы 2018-2019 [ 744 MB ] Потерянный остров | iTunes | DLRip bober100 Скачать
1 | 0



Последний раз редактировалось: bober100 (2020-02-24 01:10), всего редактировалось 1 раз

28-11-2019 20:33  


Отключить вcю реклaмy на сайте, в т.ч. и в плеере онлайн просмотра!

24-02-2020 08:00 Потерянный остров Скачать торрент  

спс за релиз... за работу, но фильм просто конченый, депрессивная чернуха, без смысла, еле досмотрел, потратил время...хотите размягчение мозга - смотрите!!!



    Дорогой пользователь! Огромная просьба, поблагодарите релизера, оцените раздачу и оставьте свои комментарий, если Вы скачали Потерянный остров через торрент бесплатно!!
    Комментировать посты могут только пользователи прошедшие не сложную регистрацию
    Показать сообщения:    


    Потерянный остров через торрент
    Скачать бесплатно Потерянный остров
    Потерянный остров скачать торрент
    Потерянный остров смотреть онлайн
    Cкачать фильм Потерянный остров бесплатно
    Потерянный остров скачать торрент в хорошем качестве
    Потерянный остров смотреть онлайн бесплатно в хорошем качестве
    Вы не можете начинать темы
    Вы не можете отвечать на сообщения
    Вы не можете редактировать свои сообщения
    Вы не можете удалять свои сообщения
    Вы не можете голосовать в опросах
    Вы не можете прикреплять файлы к сообщениям
    Вы можете скачивать файлы
    Потерянный остров [2019, драма, триллер, детектив, WEB-DL 1080p] [iTunes] смотреть онлайн, скачать торрент picoco.icu