Всегда рабочее зеркало без VPN и Proxy просто перед .vidak.icu напиши любое слово или цифру, Пример http://pd0d.vidak.icu

MVO

Лицензия

1 сезон

1

1 сезон

iTunes

1 сезон

13

1 сезон

Deluxe

pack

Рекомендуем

Пиратка

30

ВАЖНО

RePack

MK11

RePack

jed

RePack

fifa19

RePack

RDR2

RePack

NEED FOR SPEED™ PAYBACK

Кинопоиск HD

6 сезон

 Острые козырьки 6 сезон

Все сериалы

все сериалы на PB.wtf

RePack

FAR CRY 5

Anonymous, нам критически не хватает 2100 руб. на оплату серверов и переферии за МАЙ, помоги нам пожалуйста, вся надежда только на тебя. В благодарность мы отключим тебе всю рекламу на сайте!

×
  
Magnet ссылка

1001 Эротическая ночь / A Thousand and One Erotic (Edwin Brown) [1982 г., Classic, BDRip] pb.wtf

1001 Эротическая ночь через торрент pb.wtf

Раздают: 1 [ 0 KB/s ]
Размер: 1.65 GB | Добавлен: 2 года 3 мес. назад | Торрент скачан:361 раз
Смотреть онлайн 1001 Эротическая ночь | Скачать    Ребята, помогите собрать деньги на оплату серверов!!!

07-03-2020 13:49 1001 Эротическая ночь Скачать торрент  

1001 Эротическая ночь / A Thousand and One Erotic
Год выпуска: 1982

Страна: США

Жанр: Classic

Продолжительность: 01:26:55

Субтитры: Русские, английские

Режиссер: Edwin Brown

rating

В ролях:
Annette Haven ... Scheherazade
John Leslie ... Sultan Khan
Lisa De Leeuw ... Sultana
Herschel Savage ... General Sargon
Joey Silvera ... Dancing Boy (as Joey Civera)
Nicole Black ... Noblewoman
Lysa Thatcher ... Alana
Tigr ... Helen
Jon Martin ... Fisherman
Paul Thomas ... Prince
Mai Lin ... Mariko
Laura Lazare ... Parisian Woman
Jade Wong ... Tibetan Girl
Phaery Burd ... Tibetan Girl (as Tres Dover)
Heather Fields ... Tibetan Girl

Описание: Это было время, когда Султаны заполняли свои шатры великолепными девушками гарема, когда никакая фантазия не была слишком диковинной для умащеных маслами девочек рабынь и экзотических исполнителей танца живота древней Аравии. Пышная, щедрая и похотливая, 1001 Эротическая Ночь уносит Вас в экзотическую эру, когда секс был искусством - и фантазия действительностью! Вы станете свидетелями одного рассказа страсти пустыни за другим, начинающихся с джина, который гарантирует "три желания" трем девочкам пустыни. Затем, девственницы тибетского храма удовлетворяют их владельцев в ошеломляющей группе. Это - только некоторые из похабных рассказов, которые воплощаются в жизнь в 1001
Эротической Ночи - одном из самых изящных когда-либо сделанных эротических фильмов!
Качество: BDRip
Формат: MKV
Видео: 1280x720, MPEG-4 AVC, 2 560 Кбит/сек
Аудио: Английский, AC3, 1 ch, 160 Кбит/сек
Видео
Идентификатор : 1
Формат : AVC
Формат/Информация : Advanced Video Codec
Профиль формата : High@L4
Настройки формата : CABAC / 8 Ref Frames
Параметр CABAC формата : Да
Параметр RefFrames формата : 8 кадров
Идентификатор кодека : V_MPEG4/ISO/AVC
Продолжительность : 1 ч. 26 м.
Битрейт : 2560 Кбит/сек
Ширина : 1280 пикселей
Высота : 720 пикселей
Соотношение сторон : 16:9
Режим частоты кадров : Постоянный
Частота кадров : 23,976 (24000/1001) кадра/сек
Цветовое пространство : YUV
Субдискретизация насыщенности : 4:2:0
Битовая глубина : 8 бит
Тип развёртки : Прогрессивная
Бит/(Пиксели*Кадры) : 0.116
Размер потока : 1,52 Гбайт (92%)
Библиотека кодирования : x264 core 155 r2917 0a84d98
Настройки программы : cabac=1 / ref=8 / deblock=1:-2:-2 / analyse=0x3:0x133 / me=umh / subme=9 / psy=1 / psy_rd=1.00:0.25 / mixed_ref=1 / me_range=24 / chroma_me=1 / trellis=2 / 8x8dct=1 / cqm=0 / deadzone=21,11 / fast_pskip=1 / chroma_qp_offset=-4 / threads=22 / lookahead_threads=2 / sliced_threads=0 / nr=0 / decimate=1 / interlaced=0 / bluray_compat=0 / constrained_intra=0 / bframes=4 / b_pyramid=2 / b_adapt=2 / b_bias=0 / direct=3 / weightb=1 / open_gop=0 / weightp=2 / keyint=240 / keyint_min=24 / scenecut=40 / intra_refresh=0 / rc_lookahead=40 / rc=2pass / mbtree=1 / bitrate=2560 / ratetol=1.0 / qcomp=0.60 / qpmin=0 / qpmax=69 / qpstep=4 / cplxblur=20.0 / qblur=0.5 / vbv_maxrate=20000 / vbv_bufsize=25000 / nal_hrd=none / filler=0 / ip_ratio=1.40 / aq=1:1.00
Язык : English
Default : Да
Forced : Нет
Цветовой диапазон : Limited
Основные цвета : BT.709
Характеристики трансфера : BT.709
Коэффициенты матрицы : BT.709
Statistics Tags Issue : mkvmerge v7.7.0 ('Six Voices') 64bit built on Mar 1 2015 01:50:05 2020-02-13 02:40:09 / mkvmerge v6.9.1 ('Blue Panther') 64bit built on Apr 18 2014 18:23:38 2020-03-04 19:06:06
FromStats_BitRate : 2558167
FromStats_Duration : 01:26:55.461000000
FromStats_FrameCount : 125046
FromStats_StreamSize : 1667752807

Аудио
Идентификатор : 2
Формат : AC-3
Формат/Информация : Audio Coding 3
Коммерческое название : Dolby Digital
Идентификатор кодека : A_AC3
Продолжительность : 1 ч. 26 м.
Вид битрейта : Постоянный
Битрейт : 160 Кбит/сек
Каналы : 1 канал
ChannelLayout : C
Частота : 48,0 КГц
Частота кадров : 31,250 кадров/сек (1536 SPF)
Битовая глубина : 16 бит
Метод сжатия : С потерями
Задержка видео : -5 мс.
Размер потока : 99,5 Мбайт (6%)
Заголовок : Mono
Язык : English
ServiceKind/String : Complete Main
Default : Да
Forced : Нет
Statistics Tags Issue : mkvmerge v7.7.0 ('Six Voices') 64bit built on Mar 1 2015 01:50:05 2020-02-13 02:40:09 / mkvmerge v6.9.1 ('Blue Panther') 64bit built on Apr 18 2014 18:23:38 2020-03-04 19:06:06
FromStats_BitRate : 160000
FromStats_Duration : 01:26:55.392000000
FromStats_FrameCount : 162981
FromStats_StreamSize : 104307840

Текст #1
Идентификатор : 3
Формат : UTF-8
Идентификатор кодека : S_TEXT/UTF8
Идентификатор кодека/Информация : UTF-8 Plain Text
Язык : English
Default : Нет
Forced : Нет
Statistics Tags Issue : mkvmerge v7.7.0 ('Six Voices') 64bit built on Mar 1 2015 01:50:05 2020-02-13 02:40:09 / mkvmerge v6.9.1 ('Blue Panther') 64bit built on Apr 18 2014 18:23:38 2020-03-04 19:06:06
FromStats_BitRate : 24
FromStats_Duration : 01:21:13.743000000
FromStats_FrameCount : 455
FromStats_StreamSize : 14728

Текст #2
Идентификатор : 4
Формат : ASS
Идентификатор кодека : S_TEXT/ASS
Идентификатор кодека/Информация : Advanced Sub Station Alpha
Метод сжатия : Без потерь
Язык : Russian
Default : Да
Forced : Нет

Меню
00:00:00.000 : :Chapter 1
00:18:18.931 : :Chapter 2
00:35:33.048 : :Chapter 3
00:53:54.022 : :Chapter 4
01:13:30.239 : :Chapter 5

скриншот  

pb.wtf



pack Скачать 1001 Эротическая ночь через торрент https://pic1.kartinco.top/images/12/s311t.jpg Скачать, смотреть онлайн 1001 Эротическая ночь бесплантно в хорошем качестве Описание: Это было время, когда Султаны заполняли свои шатры великолепными девушками гарема, когда никакая фантазия не была слишком ... 9.9 10 12
Info! Золотая раздача, скачанное не засчитывается.
Торрент: Зарегистрирован [2020-03-07 13:49] · скачан: 361 раз
Статус: √ проверено
Размер: 1.65 GB
Как cкачать? Как скачать 1001 Эротическая ночь через торрент | UTorrent

28-11-2019 20:33  

Отключить всю рекламу на сайте

10-03-2020 04:30 1001 Эротическая ночь Скачать торрент  

Леонид Ильич писал(а):

Эротической Ночи - одном из самых изящных когда-либо сделанных эротических фильмов!

согласенpb.wtf



pack

10-03-2020 13:30 1001 Эротическая ночь Скачать торрент  

Режиссёр: Stephen Lucas, Edwin Brown
Сценарий: Edwin Brown
Продюсер: Walter Wenker, Summer Brown
Оператор: Teru Hayashi
Композитор: Richard Hieronymus

Главный режиссер фильма Stephen Lucas ...вставьте его в релиз !!!
pb.wtf



pack
    Дорогой пользователь! Огромная просьба, поблагодарите релизера, оцените раздачу и оставьте свои комментарий, если Вы скачали 1001 Эротическая ночь через торрент бесплатно!
    Комментировать посты могут только пользователи прошедшие не сложную регистрацию
    Показать сообщения:    

    1001 Эротическая ночь через торрент
    Скачать бесплатно 1001 Эротическая ночь
    1001 Эротическая ночь скачать торрент
    1001 Эротическая ночь смотреть онлайн
    Cкачать фильм 1001 Эротическая ночь бесплатно
    1001 Эротическая ночь скачать торрент в хорошем качестве
    1001 Эротическая ночь смотреть онлайн бесплатно в хорошем качестве


    Вы не можете начинать темы
    Вы не можете отвечать на сообщения
    Вы не можете редактировать свои сообщения
    Вы не можете удалять свои сообщения
    Вы не можете голосовать в опросах
    Вы не можете прикреплять файлы к сообщениям
    Вы можете скачивать файлы