Всегда рабочее зеркало без VPN и Proxy просто перед .vidak.icu напиши любое слово или цифру, Пример http://0l1e.vidak.icu

Лицензия

MVO

1 сезон

1

1 сезон

iTunes

1 сезон

13

1 сезон

Deluxe

pack

Рекомендуем

Repack

30

ВАЖНО

RePack

MK11

RePack

jed

RePack

fifa19

RePack

RDR2

RePack

NEED FOR SPEED™ PAYBACK

Кинопоиск HD

6 сезон

 Острые козырьки 6 сезон

Все сериалы

все сериалы на PB.wtf

RePack

FAR CRY 5
  
Magnet ссылка

Женщины из тюремного блока F / The Women of Cell Block F (Western Visuals) [1986 г., Classic, DVDRip] pb.wtf

Женщины из тюремного блока F через торрент pb.wtf

Раздают: 1 [ 0 KB/s ]
Размер: 1.04 GB | Добавлен: 2 года 5 мес. назад | Торрент скачан:202 раза
Смотреть онлайн Женщины из тюремного блока F | Скачать    Ребята, помогите собрать деньги на оплату серверов!!!

13-03-2020 20:07 Женщины из тюремного блока F Скачать торрент  

Женщины из тюремного блока F / The Women of Cell Block F
Год выпуска: 1986

Страна: США

Жанр: Classic

Продолжительность: 01:27:34

Студия: Western Visuals

rating

В ролях: Tom Byron, Peter North, Marc Wallice, Kevin James, Tiffany Blake, Tony Martino, Mindy Rae, Eve Adams, Jacqueline Brooks, Cheri Gardner

Описание: Prison … an image of lonely solitude with absolutely no pleasures perceived whatsoever. But, at Cell Block F, the warden has other plans for his nasty inmates. The Girls of Cell Block F explodes with enough erotic energy that surely you`ll want to be locked up in this minimum security prison. Gorgeous, sex-starved jailhouse harlots disrupt the decadent prison, and transform it into a lust-drenched breeding ground for carnal desires. Everyone, from the prisoners to the wicked warden, get their orgasmic cravings quenched, while upholding the sacred Law of Lust!
You can lock them up, but you can’t keep them down! Prison an image on lonely solitude with absolutely no pleasures percieved whatsoever. But, at Cell Block F, the warden has other plans for his nasty inmates! “The Girls of Cell Block F” explodes with enough erotic energy, that surely you’ll want to be locked up in this minimum security prison. Gorgeous, sex-starved jailhouse harlots disrupt the decadent prison, and transform it into a lust-drenched breeding ground for carnal desires. Everyone, from the prisoners to the wicked warden get their orgasmic cravings quenched, while upholding the sacred Law of Lust! This is the only Cheri Gardner video
Качество: DVDRip
Формат: AVI
Видео: 576x432, XVID, 1543 Кбит/сек
Аудио: Английский, MP3, 2 ch, 137 Кбит/сек
Видео
Идентификатор : 0
Формат : MPEG-4 Visual
Профиль формата : Advanced [email protected]
Настройки формата : BVOP2 / Custom Matrix
Параметр BVOP формата : 2
Параметр QPel формата : Нет
Параметр GMC формата : Без точки перехода
Параметр матрицы формата : Выборочная
Режим смешивания : Сжатый битовый поток
Идентификатор кодека : XVID
Идентификатор кодека/Подсказка : XviD
Продолжительность : 1 ч. 27 м.
Битрейт : 1543 Кбит/сек
Ширина : 576 пикселей
Высота : 432 пикселя
Соотношение сторон : 4:3
Частота кадров : 29,970 (30000/1001) кадров/сек
Цветовое пространство : YUV
Субдискретизация насыщенности : 4:2:0
Битовая глубина : 8 бит
Тип развёртки : Прогрессивная
Метод сжатия : С потерями
Бит/(Пиксели*Кадры) : 0.207
Размер потока : 967 Мбайт (91%)
Библиотека кодирования : XviD 1.2.0SMP (UTC 2006-01-08)

Аудио
Идентификатор : 1
Формат : MPEG Audio
Версия формата : Version 1
Профиль формата : Layer 3
Настройки формата : Joint stereo / MS Stereo
Идентификатор кодека : 55
Идентификатор кодека/Подсказка : MP3
Продолжительность : 1 ч. 27 м.
Вид битрейта : Переменный
Битрейт : 137 Кбит/сек
Номинальный битрейт : 128 Кбит/сек
Каналы : 2 канала
Частота : 48,0 КГц
Частота кадров : 41,667 кадра/сек (1152 SPF)
Метод сжатия : С потерями
Размер потока : 85,9 Мбайт (8%)
Выравнивание : Соединение по промежуткам
Продолжительность промежутка : 24 мс. (0,72 видеокадр)
Время предзагрузки промежутка : 504 мс.
Библиотека кодирования : LAME3.90.
Настройки программы : -m j -V 4 -q 2 -lowpass 17.6 --abr 128

скриншот  

pb.wtf



pack Скачать Женщины из тюремного блока F через торрент https://pic1.kartinco.top/images/12/y5cjo.jpg Скачать, смотреть онлайн Женщины из тюремного блока F бесплантно в хорошем качестве Описание: Prison … an image of lonely solitude with absolutely no pleasures perceived whatsoever. But, at Cell Block F, the warden has ... 9.8 10 5
Торрент: Зарегистрирован [2020-03-13 20:07] · скачан: 202 раз
Статус: √ проверено
Размер: 1.04 GB
Как cкачать? Как скачать Женщины из тюремного блока F через торрент | UTorrent

28-11-2019 20:33  

Отключить вcю реклaмy на сайте

    Дорогой пользователь! Огромная просьба, поблагодарите релизера, оцените раздачу и оставьте свои комментарий, если Вы скачали Женщины из тюремного блока F через торрент бесплатно!
    Комментировать посты могут только пользователи прошедшие не сложную регистрацию
    Показать сообщения:    

    Женщины из тюремного блока F через торрент
    Скачать бесплатно Женщины из тюремного блока F
    Женщины из тюремного блока F скачать торрент
    Женщины из тюремного блока F смотреть онлайн
    Cкачать фильм Женщины из тюремного блока F бесплатно
    Женщины из тюремного блока F скачать торрент в хорошем качестве
    Женщины из тюремного блока F смотреть онлайн бесплатно в хорошем качестве


    Вы не можете начинать темы
    Вы не можете отвечать на сообщения
    Вы не можете редактировать свои сообщения
    Вы не можете удалять свои сообщения
    Вы не можете голосовать в опросах
    Вы не можете прикреплять файлы к сообщениям
    Вы можете скачивать файлы