Всегда рабочее зеркало без VPN и Proxy просто перед .vidak.icu напиши любое слово или цифру, Пример http://epgt.vidak.icu

Лицензия

MVO

1 сезон

1

1 сезон

iTunes

1 сезон

13

1 сезон

Deluxe

pack

Рекомендуем

Repack

30

ВАЖНО

RePack

MK11

RePack

jed

RePack

fifa19

RePack

RDR2

RePack

NEED FOR SPEED™ PAYBACK

Кинопоиск HD

6 сезон

 Острые козырьки 6 сезон

Все сериалы

все сериалы на PB.wtf

RePack

FAR CRY 5
  
Magnet ссылка

Танцы / Fucky Dancing (Dino's Blue Movie) [1988 г., Feature, DVDRip] pb.wtf

Танцы через торрент pb.wtf

Размер: 1.03 GB | Добавлен: 2 года 4 мес. назад | Торрент скачан:256 раз
Смотреть онлайн Танцы | Скачать    Ребята, помогите собрать деньги на оплату серверов!!!

17-03-2020 20:19 Танцы Скачать торрент  

Танцы / Fucky Dancing
Год выпуска: 1988

Страна: Германия

Жанр: Feature

Продолжительность: 01:28:31

Студия: Dino's Blue Movie

В ролях:
Scene 1. Caroline Laurie, Yves Baillat
Scene 2. Susan Turner
Scene 3. Caroline Laurie, Susan Turner
Scene 4. Melissa, Roy Hunter
Scene 5. Caroline Laurie, Susan Turner, Yves Baillat
Scene 6. Caroline Laurie, Susan Turner, Roy Hunter, Yves Baillat

Описание: Caroline, an underutilized wife, goes with her dance teacher (and his giant cock) alien. Her younger cousin Emmanuelle observes this and masturbates intensively. Caroline feels the mercy and comfort of Emmanuelle through her tongue and vibrator. Husband Klaus goes meanwhile unfamiliar with the great black beauty Melissa. How everything still finds a happy ending, you will see in this hard hitting action film in which anal sex is not frowned upon
Качество: DVDRip
Формат: WMV
Видео: 649x480, WMV2, 1459 Кбит/сек
Аудио: Немецкий, WMA, 2 ch, 128 Кбит/сек
Видео
Идентификатор : 1
Формат : WMV2
Идентификатор кодека : WMV2
Идентификатор кодека/Информация : Windows Media Video 8
Описание кодека : wmv2
Продолжительность : 1 ч. 28 м.
Битрейт : 1459 Кбит/сек
Ширина : 640 пикселей
Высота : 480 пикселей
Соотношение сторон : 4:3
Частота кадров : 25,000 кадров/сек
Битовая глубина : 8 бит
Бит/(Пиксели*Кадры) : 0.190
Размер потока : 924 Мбайт (88%)

Аудио
Идентификатор : 2
Формат : WMA
Версия формата : Version 2
Идентификатор кодека : 161
Идентификатор кодека/Информация : Windows Media Audio
Описание кодека : Windows Media Audio V8
Продолжительность : 1 ч. 28 м.
Битрейт : 128 Кбит/сек
Каналы : 2 канала
Частота : 44,1 КГц
Битовая глубина : 16 бит
Размер потока : 81,0 Мбайт (8%)

скриншот  

pb.wtf



pack Скачать Танцы через торрент https://pic1.kartinco.top/images/12/2j6ek.jpg Скачать, смотреть онлайн Танцы бесплантно в хорошем качестве Описание: Caroline, an underutilized wife, goes with her dance teacher (and his giant cock) alien. Her younger cousin Emmanuelle observes ... 9.8 10 6
Торрент: Зарегистрирован [2020-03-17 20:19] · скачан: 256 раз
Статус: √ проверено
Размер: 1.03 GB
Как cкачать? Как скачать Танцы через торрент | UTorrent

28-11-2019 20:33  

Отключить вcю реклaмy на сайте

    Дорогой пользователь! Огромная просьба, поблагодарите релизера, оцените раздачу и оставьте свои комментарий, если Вы скачали Танцы через торрент бесплатно!
    Комментировать посты могут только пользователи прошедшие не сложную регистрацию
    Показать сообщения:    

    Танцы через торрент
    Скачать бесплатно Танцы
    Танцы скачать торрент
    Танцы смотреть онлайн
    Cкачать фильм Танцы бесплатно
    Танцы скачать торрент в хорошем качестве
    Танцы смотреть онлайн бесплатно в хорошем качестве


    Вы не можете начинать темы
    Вы не можете отвечать на сообщения
    Вы не можете редактировать свои сообщения
    Вы не можете удалять свои сообщения
    Вы не можете голосовать в опросах
    Вы не можете прикреплять файлы к сообщениям
    Вы можете скачивать файлы