Всегда рабочее зеркало без VPN и Proxy просто перед .vidak.icu напиши любое слово или цифру, Пример http://302h.vidak.icu

Лицензия

MVO

1 сезон

1

1 сезон

iTunes

1 сезон

13

1 сезон

Deluxe

pack

Рекомендуем

Repack

30

ВАЖНО

RePack

MK11

RePack

jed

RePack

fifa19

RePack

RDR2

RePack

NEED FOR SPEED™ PAYBACK

Кинопоиск HD

6 сезон

 Острые козырьки 6 сезон

Все сериалы

все сериалы на PB.wtf

RePack

FAR CRY 5
  
Magnet ссылка

Секс В Старших Классах / Highschool Sex (Jerry Ross) [1984 г., Feature, Classic, DVDRip AVC] pb.wtf

Секс В Старших Классах через торрент pb.wtf

Качают: 1 [ 0 KB/s ]
Размер: 1.13 GB | Добавлен: 2 года 4 мес. назад | Торрент скачан:245 раз
Смотреть онлайн Секс В Старших Классах | Скачать    Ребята, помогите собрать деньги на оплату серверов!!!

18-03-2020 15:07 Секс В Старших Классах Скачать торрент  

Секс В Старших Классах / Highschool Sex
Год выпуска: 1984

Страна: США

Жанр: Feature, Classic

Продолжительность: 01:14:09

Студия: Tabu Film

Режиссер: Jerry Ross

В ролях: Traci Lords, Ginger Lynn, Crystal Breeze, Lois Ayres, Pamela Jennings, Sahara, Susan Hart, Blake Palmer, Greg Rome, Harry Reems, Hershel Savage, Marc Wallice, Peter North, Tom Byron

Описание: Через много лет мужчина возвращается туда, где он учился - в свой бывший университет. Возвращаются горячие воспоминания - студенческие вечеринки, дикие ночи... Будет ли там сладкая Вики (Трейси Лордз), его духовная сестра, самая ненасытная нимфоманка колледжа? И черная Сабара, безотказная любовница? Или артистичная студентка Сьюзен, владеющая искусством секса без запретов? Эти и многие другие девушки подслащали его студенческие годы.

Этот фильм, как влажная мечта с невообразимыми сценами и юными, прелестными девушками. Трейси Лордз, неудержимо соблазнительная, как всегда, на первом месте в этом безумном секс-хите.
Доп. информация: Фильм переиздан немецкой студией "Tabu Film" с соотношением сторон 16:9
Качество: DVDRip AVC
Формат: MKV
Видео: 720x400, MPEG4 AVC, 2000 Кбит/сек
Аудио: Немецкий, AC3, 2 ch, 192 Кбит/сек
Видео
Идентификатор : 1
Формат : AVC
Формат/Информация : Advanced Video Codec
Профиль формата : [email protected]
Настройки формата : CABAC / 4 Ref Frames
Параметр CABAC формата : Да
Параметр RefFrames формата : 4 кадра
Идентификатор кодека : V_MPEG4/ISO/AVC
Продолжительность : 1 ч. 14 м.
Битрейт : 2000 Кбит/сек
Ширина : 720 пикселей
Высота : 400 пикселей
Соотношение сторон : 16:9
Режим частоты кадров : Постоянный
Частота кадров : 25,000 кадров/сек
Цветовое пространство : YUV
Субдискретизация насыщенности : 4:2:0
Битовая глубина : 8 бит
Тип развёртки : Прогрессивная
Бит/(Пиксели*Кадры) : 0.278
Размер потока : 1,01 Гбайт (89%)
Библиотека кодирования : x264 core 112
Настройки программы : cabac=1 / ref=3 / deblock=1:0:0 / analyse=0x3:0x113 / me=hex / subme=7 / psy=1 / psy_rd=1.00:0.00 / mixed_ref=1 / me_range=16 / chroma_me=1 / trellis=1 / 8x8dct=1 / cqm=0 / deadzone=21,11 / fast_pskip=1 / chroma_qp_offset=-2 / threads=6 / sliced_threads=0 / nr=0 / decimate=1 / interlaced=0 / constrained_intra=0 / bframes=3 / b_pyramid=2 / b_adapt=1 / b_bias=0 / direct=1 / weightb=1 / open_gop=0 / weightp=2 / keyint=250 / keyint_min=25 / scenecut=40 / intra_refresh=0 / rc_lookahead=40 / rc=abr / mbtree=1 / bitrate=2000 / ratetol=1.0 / qcomp=0.60 / qpmin=3 / qpmax=51 / qpstep=4 / ip_ratio=1.40 / aq=1:1.00
Язык : English
Default : Да
Forced : Нет
Цветовой диапазон : Limited
Основные цвета : BT.601 NTSC
Характеристики трансфера : BT.709
Коэффициенты матрицы : BT.601

Аудио
Идентификатор : 2
Формат : AC-3
Формат/Информация : Audio Coding 3
Коммерческое название : Dolby Digital
Идентификатор кодека : A_AC3
Продолжительность : 1 ч. 14 м.
Вид битрейта : Постоянный
Битрейт : 192 Кбит/сек
Каналы : 2 канала
ChannelLayout : L R
Частота : 48,0 КГц
Частота кадров : 31,250 кадров/сек (1536 SPF)
Битовая глубина : 16 бит
Метод сжатия : С потерями
Размер потока : 102 Мбайт (9%)
Язык : German
ServiceKind/String : Complete Main
Default : Да
Forced : Нет

Меню
00:00:00.000 : Chapter 1
00:01:19.240 : Chapter 2
00:16:32.680 : Chapter 3
00:31:42.280 : Chapter 4
00:40:51.400 : Chapter 5
00:51:54.280 : Chapter 6
01:02:28.840 : Chapter 7
01:13:39.880 : Chapter 8

скриншот  

pb.wtf



pack Скачать Секс В Старших Классах через торрент https://pic1.kartinco.top/images/12/fjwmi.jpg Скачать, смотреть онлайн Секс В Старших Классах бесплантно в хорошем качестве Описание: Через много лет мужчина возвращается туда, где он учился - в свой бывший университет. Возвращаются горячие воспоминания - ... 9.9 10 9
Info! Золотая раздача, скачанное не засчитывается.
Торрент: Зарегистрирован [2020-03-18 15:13] · скачан: 245 раз
Статус: √ проверено
Размер: 1.13 GB
Как cкачать? Как скачать Секс В Старших Классах через торрент | UTorrent

28-11-2019 20:33  

Отключить вcю реклaмy на сайте

    Дорогой пользователь! Огромная просьба, поблагодарите релизера, оцените раздачу и оставьте свои комментарий, если Вы скачали Секс В Старших Классах через торрент бесплатно!
    Комментировать посты могут только пользователи прошедшие не сложную регистрацию
    Показать сообщения:    

    Секс В Старших Классах через торрент
    Скачать бесплатно Секс В Старших Классах
    Секс В Старших Классах скачать торрент
    Секс В Старших Классах смотреть онлайн
    Cкачать фильм Секс В Старших Классах бесплатно
    Секс В Старших Классах скачать торрент в хорошем качестве
    Секс В Старших Классах смотреть онлайн бесплатно в хорошем качестве


    Вы не можете начинать темы
    Вы не можете отвечать на сообщения
    Вы не можете редактировать свои сообщения
    Вы не можете удалять свои сообщения
    Вы не можете голосовать в опросах
    Вы не можете прикреплять файлы к сообщениям
    Вы можете скачивать файлы