Всегда рабочее зеркало без VPN и Proxy просто перед .vidak.icu напиши любое слово или цифру, Пример http://lkz6.vidak.icu

MVO

Лицензия

1 сезон

1

1 сезон

iTunes

1 сезон

13

1 сезон

Deluxe

pack

Рекомендуем

Пиратка

30

ВАЖНО

RePack

MK11

RePack

jed

RePack

fifa19

RePack

RDR2

RePack

NEED FOR SPEED™ PAYBACK

Кинопоиск HD

6 сезон

 Острые козырьки 6 сезон

Все сериалы

все сериалы на PB.wtf

RePack

FAR CRY 5

Anonymous, нам критически не хватает 2100 руб. на оплату серверов и переферии за МАЙ, помоги нам пожалуйста, вся надежда только на тебя. В благодарность мы отключим тебе всю рекламу на сайте!

×
  
Magnet ссылка

Город грехов / Sin City (Фрэнк Миллер, Роберт Родригес, Квентин Тарантино) [2005, Боевик, триллер, криминал, BDRip 1080p] DUB+MVO pb.wtf

Город грехов через торрент pb.wtf

Размер: 7.98 GB | Добавлен: 2 года 3 мес. назад | Торрент скачан:89 раз
Смотреть онлайн Город грехов | Скачать    Ребята, помогите собрать деньги на оплату серверов!!!

19-03-2020 15:01 Город грехов Скачать торрент  

Город грехов / Sin City
Год выпуска: 2005
Страна: США
Жанр: Боевик, триллер, криминал
Продолжительность: 02:04:02
Перевод: Дубляж +Профессиональный (многоголосый)
Субтитры: НЕТ

Режиссер: Фрэнк Миллер, Роберт Родригес, Квентин Тарантино

В ролях: Джессика Альба, Брюс Уиллис, Клайв Оуэн, Микки Рурк, Девон Аоки, Алексис Бледел, Пауэрс Бут, Розарио Доусон, Бенисио Дель Торо, Джейсон Дуглас, Майкл Кларк Дункан, Томми Флэнеган, Карла Гуджино, Рутгер Хауэр, Джош Хартнетт, Никки Кэт, Джейми Кинг, Майкл Мэдсен, Джейсон МакДональд, Бриттани Мёрфи, Марли Шелтон, Ник Стал, Патриция Вонне, Элайджа Вуд, Джессика Хейл

Описание: Если в Городе Грехов знать, куда завернуть, то найдёшь всё, что нужно... Всё, что угодно. Наемного убийцу и лёгкую смерть. Мерзкую похоть и чистую любовь. Надо только быть готовым платить по счетам, когда придёт время. Платить своей честью и семьёй, если в последний день службы в полиции ты хочешь спасти маленькую девочку от сенаторского сынка-извращенца. Платить своей жизнью, если хочешь отомстить за смерть единственной женщины, которая была нежна с тобой. Платить, если ты по ошибке нарушил мир между продажными женщинами и продажными полицейскими. У Города Грехов на всё свои расценки, и он предъявит их тебе, но ты будешь знать, что оно того стоило...

rating

Качество: BDRip (1080p)
Формат: MKV
Видео кодек: AVC
Аудио кодек: AC3-DTS
Видео: MPEG-4 AVC, (1920x1040),8000 Кбит/с, 23.976 кадра/сек
Аудио#1: AC3, 6 ch, 448 kbps (Rus) 48.0 KHz Профессиональный (многоголосый)
Аудио#2: DTS, 6 ch, 755 kbps (Rus) 48.0 KHz Дублированный
скриншот   скриншот   скриншот  

Общее
Уникальный идентификатор : 186458377397987867437767898187051100961 (0x8C4693C6155F36F482FF4B3E9F6CEB21)
Полное имя : I:\Скрин\Gorod.Grehov.2005.x264.BDRip.mkv
Формат : Matroska
Версия формата : Version 1
Размер файла : 7,98 Гбайт
Продолжительность : 2 ч. 3 м.
Режим общего битрейта : Переменный
Общий поток : 9210 Кбит/сек
Дата кодирования : UTC 2008-12-17 12:10:23
Программа кодирования : mkvmerge v2.4.1 ('Use Me') built on Dec 5 2008 18:30:05
Библиотека кодирования : libebml v0.7.7 + libmatroska v0.8.1

Видео
Идентификатор : 1
Формат : AVC
Формат/Информация : Advanced Video Codec
Профиль формата : High@L4.1
Настройки формата : CABAC / 5 Ref Frames
Параметр CABAC формата : Да
Параметр RefFrames формата : 5 кадров
Идентификатор кодека : V_MPEG4/ISO/AVC
Продолжительность : 2 ч. 3 м.
Вид битрейта : Переменный
Битрейт : 8000 Кбит/сек
Максимальный битрейт : 40,0 Мбит/сек
Ширина : 1920 пикселей
Высота : 1040 пикселей
Соотношение сторон : 1,85:1
Режим частоты кадров : Постоянный
Частота кадров : 23,976 кадра/сек
Цветовое пространство : YUV
Субдискретизация насыщенности : 4:2:0
Битовая глубина : 8 бит
Тип развёртки : Прогрессивная
Бит/(Пиксели*Кадры) : 0.167
Размер потока : 6,78 Гбайт (85%)
Библиотека кодирования : x264 core 65 r1051M 549cc55
Настройки программы : cabac=1 / ref=5 / deblock=1:-3:-3 / analyse=0x3:0x113 / me=umh / subme=7 / psy_rd=1.0:0.0 / mixed_ref=1 / me_range=25 / chroma_me=1 / trellis=2 / 8x8dct=1 / cqm=0 / deadzone=21,11 / chroma_qp_offset=-3 / threads=4 / nr=0 / decimate=0 / mbaff=0 / bframes=3 / b_pyramid=0 / b_adapt=2 / b_bias=0 / direct=3 / wpredb=1 / keyint=24 / keyint_min=2 / scenecut=40(pre) / rc=2pass / bitrate=8000 / ratetol=1.0 / qcomp=0.50 / qpmin=10 / qpmax=51 / qpstep=4 / cplxblur=20.0 / qblur=0.5 / vbv_maxrate=40000 / vbv_bufsize=40000 / ip_ratio=1.10 / pb_ratio=1.10 / aq=1:1.00
Язык : English
Default : Да
Forced : Нет

Аудио #1
Идентификатор : 2
Формат : DTS
Формат/Информация : Digital Theater Systems
Идентификатор кодека : A_DTS
Продолжительность : 2 ч. 3 м.
Вид битрейта : Постоянный
Битрейт : 755 Кбит/сек
Каналы : 6 каналов
Расположение каналов : Front: L C R, Side: L R, LFE
Частота : 48,0 КГц
Частота кадров : 93,750 кадра/сек (512 SPF)
Битовая глубина : 24 бит
Метод сжатия : С потерями
Размер потока : 669 Мбайт (8%)
Заголовок : Dubbed_DTS
Язык : Russian
Default : Да
Forced : Нет

Аудио #2
Идентификатор : 3
Формат : AC-3
Формат/Информация : Audio Coding 3
Идентификатор кодека : A_AC3
Продолжительность : 2 ч. 3 м.
Вид битрейта : Постоянный
Битрейт : 448 Кбит/сек
Каналы : 6 каналов
Расположение каналов : Front: L C R, Side: L R, LFE
Частота : 48,0 КГц
Частота кадров : 31,250 кадров/сек (1536 SPF)
Битовая глубина : 16 бит
Метод сжатия : С потерями
Размер потока : 397 Мбайт (5%)
Заголовок : Mnogogoloska_tycoon_AC3 448
Язык : Russian
ServiceKind/String : Complete Main
Default : Нет
Forced : Нет

pb.wtf



Скачать Город грехов через торрент https://pic1.kartinco.top/images/12/2s1n5.jpg Скачать, смотреть онлайн Город грехов бесплантно в хорошем качестве Описание: Если в Городе Грехов знать, куда завернуть, то найдёшь всё, что нужно... Всё, что угодно. Наемного убийцу и лёгкую смерть. ... 9.6 10 11
Info! Золотая раздача, скачанное не засчитывается.
Торрент: Зарегистрирован [2020-03-19 15:01] · скачан: 89 раз
Статус: # сомнительно
Размер: 7.98 GB
Как cкачать? Как скачать Город грехов через торрент | UTorrent



Последний раз редактировалось: Бумер (2020-03-19 15:44), всего редактировалось 2 раз(а)

28-11-2019 20:33  

Отключить всю рекламу на сайте

20-03-2020 13:45 Город грехов Скачать торрент  

почему статус # сомнительно?pb.wtf



    Дорогой пользователь! Огромная просьба, поблагодарите релизера, оцените раздачу и оставьте свои комментарий, если Вы скачали Город грехов через торрент бесплатно!
    Комментировать посты могут только пользователи прошедшие не сложную регистрацию
    Показать сообщения:    

    Город грехов через торрент
    Скачать бесплатно Город грехов
    Город грехов скачать торрент
    Город грехов смотреть онлайн
    Cкачать фильм Город грехов бесплатно
    Город грехов скачать торрент в хорошем качестве
    Город грехов смотреть онлайн бесплатно в хорошем качестве


    Вы не можете начинать темы
    Вы не можете отвечать на сообщения
    Вы не можете редактировать свои сообщения
    Вы не можете удалять свои сообщения
    Вы не можете голосовать в опросах
    Вы не можете прикреплять файлы к сообщениям
    Вы можете скачивать файлы