Всегда рабочее зеркало без VPN и Proxy просто перед .vidak.icu напиши любое слово или цифру, Пример http://ta1t.vidak.icu

Лицензия

MVO

1 сезон

1

1 сезон

iTunes

1 сезон

13

1 сезон

Deluxe

pack

Рекомендуем

Repack

30

ВАЖНО

RePack

MK11

RePack

jed

RePack

fifa19

RePack

RDR2

RePack

NEED FOR SPEED™ PAYBACK

Кинопоиск HD

6 сезон

 Острые козырьки 6 сезон

Все сериалы

все сериалы на PB.wtf

RePack

FAR CRY 5
  
Magnet ссылка

2040: Будущее ждёт / 2040 (Дэймон Гамо) [2019, Документальный, новости, история, WEB-DL 1080p] MVO [iTunes] pb.wtf

2040: Будущее ждёт через торрент pb.wtf

Размер: 3.16 GB | Добавлен: 2 года 4 мес. назад | Торрент скачан:119 раз
Смотреть онлайн 2040: Будущее ждёт | Скачать    Ребята, помогите собрать деньги на оплату серверов!!!

19-03-2020 20:21 2040: Будущее ждёт Скачать торрент  

2040: Будущее ждёт | 2040
Год выпуска: 2019
Страна: Австралия
Жанр: Документальный, новости, история
Продолжительность: 01:31:42
Перевод: Профессиональный многоголосый | iTunes
Субтитры: отсутствуют

Режиссер: Дэймон Гамо

rating

В ролях: Дэймон Гамо, Ева Лаззаро, Зои Гамо, Линда МакКончи

Описание: Вы когда-нибудь задумывались, как могла бы выглядеть жизнь на планете через 20 лет? Представьте, если бы мы использовали лучшие открытия и технологии и решили существующие проблемы? Все зависит только от нас. Загляните в новый мир сейчас.

Качество: WEB-DL 1080p
Формат: MKV

Видео: MPEG-4 AVC, 4544 Kb/s, 1920x800, 24 fps
Аудио Russian: 48 kHz, AC3 Dolby Digital, 3/2 (L,C,R,l,r) + LFE ch, ~384 kbps
скриншот  скриншот  скриншот  скриншот  

Video
ID : 1
Format : AVC
Format/Info : Advanced Video Codec
Format profile : [email protected]
Format settings : CABAC / 5 Ref Frames
Format settings, CABAC : Yes
Format settings, Reference : 5 frames
Codec ID : V_MPEG4/ISO/AVC
Duration : 1 h 31 min
Bit rate : 4 544 kb/s
Width : 1 920 pixels
Height : 800 pixels
Display aspect ratio : 2.40:1
Frame rate mode : Constant
Frame rate : 24.000 FPS
Color space : YUV
Chroma subsampling : 4:2:0
Bit depth : 8 bits
Scan type : Progressive
Bits/(Pixel*Frame) : 0.123
Stream size : 2.91 GiB (92%)
Title : 2040_2019_WEB-DL_1080p-BLUEBIRD
Language : English
Default : Yes
Forced : No
Color range : Limited
Color primaries : BT.709
Transfer characteristics : BT.709
Matrix coefficients : BT.709

Audio
ID : 2
Format : AC-3
Format/Info : Audio Coding 3
Commercial name : Dolby Digital
Codec ID : A_AC3
Duration : 1 h 31 min
Bit rate mode : Constant
Bit rate : 384 kb/s
Channel(s) : 6 channels
Channel layout : L R C LFE Ls Rs
Sampling rate : 48.0 kHz
Frame rate : 31.250 FPS (1536 SPF)
Compression mode : Lossy
Delay relative to video : -42 ms
Stream size : 252 MiB (8%)
Title : [MVO] DD 5.1 @ 384 kbps (iTunes)
Language : Russian
Service kind : Complete Main
Default : Yes
Forced : No

Menu
00:00:00.000 : en:Глава 1
00:07:40.833 : en:Глава 2
00:16:50.374 : en:Глава 3
00:20:49.207 : en:Глава 4
00:30:08.082 : en:Глава 5
00:35:31.832 : en:Глава 6
00:50:09.707 : en:Глава 7
00:54:54.082 : en:Глава 8
01:03:48.707 : en:Глава 9
01:06:41.957 : en:Глава 10
01:14:16.123 : en:Глава 11
01:23:08.831 : en:Глава 12

pb.wtf



Скачать 2040: Будущее ждёт через торрент https://b.radikal.ru/b35/2003/7e/d874f0fd000a.png Скачать, смотреть онлайн 2040: Будущее ждёт бесплантно в хорошем качестве Описание: Вы когда-нибудь задумывались, как могла бы выглядеть жизнь на планете через 20 лет? Представьте, если бы мы использовали лучшие ... 9 10 5
Торрент: Зарегистрирован [2020-03-19 20:21] · скачан: 119 раз
Статус: √ проверено
Размер: 3.16 GB
Как cкачать? Как скачать 2040: Будущее ждёт через торрент | UTorrent

% Раздел Тема Автор DL S | L
Научно-популярные фильмы [ 1.46 GB ] 2040: Будущее ждёт / 2040 [2019 Документальный новости история BDRip] MVO bober100 Скачать
1 | 0

28-11-2019 20:33  

Отключить вcю реклaмy на сайте

    Дорогой пользователь! Огромная просьба, поблагодарите релизера, оцените раздачу и оставьте свои комментарий, если Вы скачали 2040: Будущее ждёт через торрент бесплатно!
    Комментировать посты могут только пользователи прошедшие не сложную регистрацию
    Показать сообщения:    

    2040: Будущее ждёт через торрент
    Скачать бесплатно 2040: Будущее ждёт
    2040: Будущее ждёт скачать торрент
    2040: Будущее ждёт смотреть онлайн
    Cкачать фильм 2040: Будущее ждёт бесплатно
    2040: Будущее ждёт скачать торрент в хорошем качестве
    2040: Будущее ждёт смотреть онлайн бесплатно в хорошем качестве


    Вы не можете начинать темы
    Вы не можете отвечать на сообщения
    Вы не можете редактировать свои сообщения
    Вы не можете удалять свои сообщения
    Вы не можете голосовать в опросах
    Вы не можете прикреплять файлы к сообщениям
    Вы можете скачивать файлы