Ссылка на приватное зеркало нашего сайта всего за 1$. Внимание количество ограничено!!!

2 сезон

iTunes

1 сезон

1

2 сезон

2 сезон

iTunes

1 сезон

RePack

30

Ultimate

ВАЖНО

ИГРА 18+

pack

RePack

MK11
pack

Забери бонус

RePack

jed

!!Акция!!

Alien_Rage

RePack

fifa19

RePack

Assassins Creed: Odyssey

RePack

NEED FOR SPEED™ PAYBACK

4 сезон

9 сезон

Бесстыжие 9 сезон

Все сериалы

все сериалы на PB.wtf

RePack

FAR CRY 5
  

Нож в сердце / Серии: 1-2 из 2 (Карен Захаров) [2020, Детектив, WEB-DLRip-AVC] pb.wtf

Нож в сердце через торрент pb.wtf

Раздают: 1 [ 0 KB/s ]
Размер: 1.14 GB | Добавлен: 8 мес. назад | Торрент скачан:81 раз
Скачать  

27-03-2020 19:44 Нож в сердце Скачать торрент  

Нож в сердце
Год выпуска: 2020
Страна: Россия
Жанр: Детектив
Продолжительность: ~ 00:45:00
Субтитры: отсутствуют

Режиссер: Карен Захаров

В ролях: Виктория Полторак, Евгений Миллер, Марк Доронин, Анастасия Балякина, Дмитрий Гусев, Тамара Акулова, Татьяна Филатова, Константин Третьяков, Валерия Кристиансен, Владимир Андриянов, Анна Воропаева, Сергей Бредюк, Владимир Фоков, Веста Буркот, Наталья Унгард, Евгения Лютая, Александр Браженко

Описание: Маша в одиночку воспитывает сына и ведет собственный бизнес – у нее агентство по оказанию бытовых услуг. Стирка, уборка, готовка борщей – такие вот будни, которые можно отдать на аутсорсинг. Изюминка в том, что в агентстве работают мужчины. И вот однажды Машиному агентству заказывают обслуживание частного ужина. А наутро хозяйку дома находят в собственной постели с ножом в сердце. Главный подозреваемый – один из Машиных сотрудников, Игорь. Конечно, Маша уверена, что это какая-то ошибка…

Качество: WEB-DLRip-AVC
Формат: MKV

Видео: MPEG-4 AVC, ~ 1600 Кбит/с, 1024x576, 25 кадр/с
Аудио: 48.0 kHz, AC3 Dolby Digital, 2/0 (L,R) ch, ~ 192 kbps
скриншот  скриншот  скриншот  скриншот  скриншот  

General
Unique ID : 253091238917801886572176061463430002200 (0xBE67997D61180AA783A07007A4917618)
Complete name : F:\Нож в сердце.(2019).WEB-DLRip.(AVC).Files-x\01.Нож в сердце.(2019).WEB-DLRip.(AVC).by.Серый1779.Files-x.mkv
Format : Matroska
Format version : Version 2
File size : 601 MiB
Duration : 46 min 50 s
Overall bit rate : 1 793 kb/s
Encoded date : UTC 2020-03-27 19:19:33
Writing application : mkvmerge v7.8.0 ('River Man') 32bit built on Apr 3 2015 12:11:22
Writing library : libebml v1.3.1 + libmatroska v1.4.2

Video
ID : 1
Format : AVC
Format/Info : Advanced Video Codec
Format profile : High@L4.1
Format settings : CABAC / 9 Ref Frames
Format settings, CABAC : Yes
Format settings, RefFrames : 9 frames
Codec ID : V_MPEG4/ISO/AVC
Duration : 46 min 50 s
Bit rate : 1 600 kb/s
Width : 1 024 pixels
Height : 576 pixels
Display aspect ratio : 16:9
Frame rate mode : Constant
Frame rate : 25.000 FPS
Color space : YUV
Chroma subsampling : 4:2:0
Bit depth : 8 bits
Scan type : Progressive
Bits/(Pixel*Frame) : 0.109
Stream size : 525 MiB (87%)
Writing library : x264 core 146 r2538 121396c
Encoding settings : cabac=1 / ref=9 / deblock=1:-2:-1 / analyse=0x3:0x133 / me=umh / subme=9 / psy=1 / psy_rd=1.00:0.15 / mixed_ref=1 / me_range=32 / chroma_me=1 / trellis=2 / 8x8dct=1 / cqm=0 / deadzone=21,11 / fast_pskip=0 / chroma_qp_offset=-3 / threads=18 / lookahead_threads=3 / sliced_threads=0 / nr=0 / decimate=1 / interlaced=0 / bluray_compat=0 / constrained_intra=0 / bframes=9 / b_pyramid=2 / b_adapt=2 / b_bias=0 / direct=1 / weightb=1 / open_gop=0 / weightp=2 / keyint=250 / keyint_min=25 / scenecut=40 / intra_refresh=0 / rc=2pass / mbtree=0 / bitrate=1600 / ratetol=1.0 / qcomp=0.60 / qpmin=0 / qpmax=69 / qpstep=4 / cplxblur=20.0 / qblur=0.5 / ip_ratio=1.40 / pb_ratio=1.30 / aq=2:1.00
Default : Yes
Forced : No
Color range : Limited
Color primaries : BT.709
Transfer characteristics : BT.709
Matrix coefficients : BT.709

Audio
ID : 2
Format : AC-3
Format/Info : Audio Coding 3
Format settings, Endianness : Big
Codec ID : A_AC3
Duration : 46 min 50 s
Bit rate mode : Constant
Bit rate : 192 kb/s
Channel(s) : 2 channels
Channel positions : Front: L R
Sampling rate : 48.0 kHz
Frame rate : 31.250 FPS (1536 SPF)
Bit depth : 16 bits
Compression mode : Lossy
Stream size : 64.3 MiB (11%)
Service kind : Complete Main
Default : Yes
Forced : No

pb.wtf



Скачать Нож в сердце через торрент https://i111.fastpic.ru/big/2020/0327/9b/ebd7d733e5cd3779c34ed43145d8459b.jpg Скачать фильм Нож в сердце через торрент бесплантно в хорошем качестве Описание: Маша в одиночку воспитывает сына и ведет собственный бизнес – у нее агентство по оказанию бытовых услуг. Стирка, уборка, готовка ... 10 10 3
Торрент: Зарегистрирован [2020-03-28 04:40] · скачан: 81 раз
Статус: √ проверено
Размер: 1.14 GB
Как cкачать? Как скачать Нож в сердце через торрент | qTorrent

% Раздел Тема Автор DL S | L
Наши сериалы [ 1.17 GB ] Нож в сердце / Серии: 1-2 из 2 [2020 SATRip] bober100 Скачать
1 | 0
Наши сериалы [ 1.15 GB ] Нож в сердце / Серии: 1-2 из 2 [2020 WEB-DLRip] bober100 Скачать
1 | 0
Наши сериалы [ 1.07 GB ] Нож в сердце / Серии: 1-2 из 2 [2020 SATRip-AVC] aleksan55 Скачать
1 | 0

28-11-2019 20:33  

Отключить всю рекламу на сайте

    Дорогой пользователь! Огромная просьба, поблагодарите релизера, оцените раздачу и оставьте свои комментарий, если Вы скачали Нож в сердце через торрент бесплатно! Внесите свою лепту в развитие PiratBit!
    Комментировать посты могут только пользователи прошедшие не сложную регистрацию
    Показать сообщения:    

    Нож в сердце через торрент
    Скачать бесплатно Нож в сердце
    Нож в сердце скачать торрент
    Нож в сердце смотреть онлайн
    Cкачать фильм Нож в сердце бесплатно
    Нож в сердце скачать торрент в хорошем качестве
    Нож в сердце смотреть онлайн бесплатно в хорошем качестве


    Вы не можете начинать темы
    Вы не можете отвечать на сообщения
    Вы не можете редактировать свои сообщения
    Вы не можете удалять свои сообщения
    Вы не можете голосовать в опросах
    Вы не можете прикреплять файлы к сообщениям
    Вы можете скачивать файлы