Всегда рабочее зеркало без VPN и Proxy просто перед .vidak.icu напиши любое слово или цифру, Пример http://t3xa.vidak.icu

MVO

Лицензия

1 сезон

1

1 сезон

iTunes

1 сезон

13

1 сезон

Deluxe

pack

Рекомендуем

Пиратка

30

ВАЖНО

RePack

MK11

RePack

jed

RePack

fifa19

RePack

RDR2

RePack

NEED FOR SPEED™ PAYBACK

Кинопоиск HD

6 сезон

 Острые козырьки 6 сезон

Все сериалы

все сериалы на PB.wtf

RePack

FAR CRY 5
  
Magnet ссылка

Письмо королю / The Letter for the King / Сезон: 1 / Серии: 1-6 из 6 (Алекс Холмс, Чарльз Мартин, Феликс Томпсон) [2020, Фэнтези, боевик, приключения, семейный, WEBRip 720p] MVO [TVShows] pb.wtf

Письмо королю через торрент pb.wtf

Размер: 7.72 GB | Добавлен: 2 года 2 мес. назад | Торрент скачан:42 раза
Смотреть онлайн Письмо королю | Скачать    Ребята, помогите собрать деньги на оплату серверов!!!

12-04-2020 14:19 Письмо королю Скачать торрент  

Письмо королю | The Letter for the King
Год выпуска: 2020
Страна: Великобритания
Жанр: Фэнтези, боевик, приключения, семейный
Продолжительность: ~ 00:52:00
Перевод: Профессиональный (многоголосый) | TVShows
Субтитры: Английские

Режиссер: Алекс Холмс, Чарльз Мартин, Феликс Томпсон

rating

В ролях: Амир Уилсон, Хайс Блом, Руби Эшборн Серкис, Натаниэль Сале, Таддеа Грэм, Ислам Буакказ, Джек Бартон, Питер Фердинандо, Джона Лис, Тауфик Бархом

Описание: Действие сериала «Письмо королю» разворачивается в вымышленном средневековом мире. Молодой оруженосец Тьюри берется за ответственное и необычное задание: ему предстоит пройти через три королевства, чтобы лично вручить Королю секретное письмо. Выполняя эту ответственную миссию, Тьюри попадает в эпические и опасные приключения и вскоре осознает, что в его руках оказалась судьба целого королевства. Сериал «Письмо королю» основан на одноименном сказочном романе датской писательницы Тонке Драгт, опубликованном в 1962 году.

Качество: WEBRip 720p
Формат: MKV

Видео: MPEG-4 AVC, ~ 2700 Кбит/с, 1280x720
Аудио#1: Русский (AC3, 6 ch, 384 Кбит/с)
Аудио#2: английский (ЕAC3, 6 ch, 768 Кбит/с)
скриншот  скриншот  скриншот  скриншот  

Общее
Уникальный идентификатор : 236532820065890222282248552704932785290 (0xB1F29068D39626601CD7E4515A632C8A)
Полное имя : C:The.Letter.For.The.King.S01.720p.TVShows\The.Letter.For.The.King.S01E01.720p.TVShows.mkv
Формат : Matroska
Версия формата : Version 4
Размер файла : 1,38 Гбайт
Продолжительность : 51 м. 6 с.
Режим общего битрейта : Переменный
Общий поток : 3871 Кбит/сек
Дата кодирования : UTC 2020-03-29 16:03:30
Программа кодирования : mkvmerge v33.1.0 ('Primrose') 64-bit
Библиотека кодирования : libebml v1.3.7 + libmatroska v1.5.0

Видео
Идентификатор : 1
Формат : AVC
Формат/Информация : Advanced Video Codec
Профиль формата : Main@L3.1
Настройки формата : CABAC / 3 Ref Frames
Параметр CABAC формата : Да
Параметр RefFrames формата : 3 кадра
Идентификатор кодека : V_MPEG4/ISO/AVC
Продолжительность : 51 м. 6 с.
Вид битрейта : Переменный
Битрейт : 2642 Кбит/сек
Номинальный битрейт : 2870 Кбит/сек
Максимальный битрейт : 4305 Кбит/сек
Ширина : 1280 пикселей
Высота : 720 пикселей
Соотношение сторон : 16:9
Режим частоты кадров : Постоянный
Частота кадров : 23,976 (24000/1001) кадра/сек
Цветовое пространство : YUV
Субдискретизация насыщенности : 4:2:0
Битовая глубина : 8 бит
Тип развёртки : Прогрессивная
Бит/(Пиксели*Кадры) : 0.120
Размер потока : 966 Мбайт (68%)
Библиотека кодирования : x264 core 148 r2717 0d2410d
Настройки программы : cabac=1 / ref=3 / deblock=1:0:0 / analyse=0x1:0x111 / me=umh / subme=10 / psy=1 / psy_rd=1.00:0.00 / mixed_ref=1 / me_range=24 / chroma_me=1 / trellis=2 / 8x8dct=0 / cqm=0 / deadzone=21,11 / fast_pskip=1 / chroma_qp_offset=-2 / threads=8 / lookahead_threads=1 / sliced_threads=0 / nr=0 / decimate=1 / interlaced=0 / bluray_compat=0 / stitchable=1 / constrained_intra=0 / bframes=2 / b_pyramid=0 / b_adapt=2 / b_bias=0 / direct=3 / weightb=1 / open_gop=0 / weightp=2 / keyint=250 / keyint_min=23 / scenecut=0 / intra_refresh=0 / rc_lookahead=48 / rc=2pass / mbtree=1 / bitrate=2870 / ratetol=1.0 / qcomp=0.50 / qpmin=6 / qpmax=51 / qpstep=4 / cplxblur=20.0 / qblur=0.5 / vbv_maxrate=4305 / vbv_bufsize=5740 / nal_hrd=vbr / filler=0 / ip_ratio=1.40 / aq=1:1.00
Default : Да
Forced : Нет

Аудио #1
Идентификатор : 2
Формат : AC-3
Формат/Информация : Audio Coding 3
Коммерческое название : Dolby Digital
Идентификатор кодека : A_AC3
Продолжительность : 51 м. 6 с.
Вид битрейта : Постоянный
Битрейт : 384 Кбит/сек
Каналы : 6 каналов
ChannelLayout : L R C LFE Ls Rs
Частота : 48,0 КГц
Частота кадров : 31,250 кадров/сек (1536 SPF)
Битовая глубина : 16 бит
Метод сжатия : С потерями
Размер потока : 140 Мбайт (10%)
Заголовок : TVShows
Язык : Russian
ServiceKind/String : Complete Main
Default : Да
Forced : Да

Аудио #2
Идентификатор : 3
Формат : E-AC-3 JOC
Формат/Информация : Enhanced AC-3 with Joint Object Coding
Коммерческое название : Dolby Digital Plus with Dolby Atmos
Идентификатор кодека : A_EAC3
Продолжительность : 51 м. 6 с.
Вид битрейта : Постоянный
Битрейт : 768 Кбит/сек
Каналы : 6 каналов
ChannelLayout : L R C LFE Ls Rs
Частота : 48,0 КГц
Частота кадров : 31,250 кадров/сек (1536 SPF)
Метод сжатия : С потерями
Размер потока : 281 Мбайт (20%)
Заголовок : Original
Язык : English
ServiceKind/String : Complete Main
Default : Нет
Forced : Нет
ComplexityIndex : 16
NumberOfDynamicObjects : 15
BedChannelCount/String : 1 канал
BedChannelConfiguration : LFE

Текст
Идентификатор : 4
Формат : UTF-8
Идентификатор кодека : S_TEXT/UTF8
Идентификатор кодека/Информация : UTF-8 Plain Text
Заголовок : English
Язык : English
Default : Нет
Forced : Нет

Раздача ведётся путём добавления новых серий; при каждом добавлении создаётся новый торрент.
Чтобы начать докачку новой серии, пользователям необходимо сделать следующее:
1. остановить скачивание,
2. удалить старый торрент у себя из клиента (старые серии удалять не надо),
3. скачать новый торрент и запустить его у себя в клиенте вместо старого, при этом указать клиенту путь в старую папку, куда и должно происходить скачивание новых серий.

Ваш клиент при этом должен произвести хеширование (проверку) старой папки (если не производит сам - помогите ему сделать это), и будет докачивать только те серии которых у вас ещё нет. Старые серии при этом не удаляются, а продолжают раздаваться!

Eсли вы уже удалили старые серии, то предотвратить повторную закачку старых серий можно, отжав галочку в соответствующих местах при запуске нового торрента. По возможности, желательно не удалять старые серии как можно дольше, чтобы релизёр не столько продолжал раздавать старые серии, а смог сконцентрироваться на новых.

Совет для тех, кто не хочет ждать перехеширования:
Создайте ещё одну папку рядом с папкой сериала (рядом, а не в ней!!!). Каждую новую серию после удачной загрузки копируйте в новую папку так чтобы ваша основная папка всегда была пуста. Когда ваш новый торрент предложит вам закачать все файлы, выберете только последнюю. Для сидирования же укажите адрес новой папки.

Как закачать отдельный файл из торрента или докачать ранее пропущенные файлы торрента!
pb.wtf



Скачать Письмо королю через торрент https://i111.fastpic.ru/big/2020/0320/b6/9b3784090ab6c641e36f7cddceafc9b6.jpg Скачать, смотреть онлайн Письмо королю бесплантно в хорошем качестве Описание: Действие сериала «Письмо королю» разворачивается в вымышленном средневековом мире. Молодой оруженосец Тьюри берется за ... 8.2 10 5
Торрент: Зарегистрирован [2020-04-13 11:58] · скачан: 42 раз
Статус: √ проверено
Размер: 7.72 GB
Как cкачать? Как скачать Письмо королю через торрент | UTorrent

% Раздел Тема Автор DL S | L
Зарубежные сериалы [ 14.61 GB ] Письмо королю / The Letter for the King / Сезон: 1 / Серии: 1-6 из 6 [2020 WEBRip 1080p] MVO [TVShows] bober100 Скачать
1 | 0
Зарубежные сериалы [ 15.12 GB ] Письмо королю / The Letter for the King / Сезон: 1 / Серии: 1-6 из 6 [2020 WEB-DL 1080p] killermax2013 Скачать
1 | 0
Зарубежные сериалы [ 3.97 GB ] Письмо королю / The Letter for the King / Сезон: 1 / Серии: 1-6 из 6 [2020 Нидерланды . WEB-DLRip] Dub killermax2013 Скачать
1 | 0


Последний раз редактировалось: bober100 (2020-04-13 12:27), всего редактировалось 2 раз(а)

28-11-2019 20:33  

Отключить всю рекламу на сайте

12-04-2020 14:37 Письмо королю Скачать торрент  

разверстка на угловые сцены какая?pb.wtf



    Дорогой пользователь! Огромная просьба, поблагодарите релизера, оцените раздачу и оставьте свои комментарий, если Вы скачали Письмо королю через торрент бесплатно!
    Комментировать посты могут только пользователи прошедшие не сложную регистрацию
    Показать сообщения:    

    Письмо королю через торрент
    Скачать бесплатно Письмо королю
    Письмо королю скачать торрент
    Письмо королю смотреть онлайн
    Cкачать фильм Письмо королю бесплатно
    Письмо королю скачать торрент в хорошем качестве
    Письмо королю смотреть онлайн бесплатно в хорошем качестве


    Вы не можете начинать темы
    Вы не можете отвечать на сообщения
    Вы не можете редактировать свои сообщения
    Вы не можете удалять свои сообщения
    Вы не можете голосовать в опросах
    Вы не можете прикреплять файлы к сообщениям
    Вы можете скачивать файлы