Ссылка на приватное зеркало нашего сайта всего за 1$. Внимание количество ограничено!!!

2 сезон

iTunes

1 сезон

1

2 сезон

2 сезон

iTunes

1 сезон

RePack

30

Ultimate

ВАЖНО

ИГРА 18+

pack

RePack

MK11
pack

Забери бонус

RePack

jed

!!Акция!!

Alien_Rage

RePack

fifa19

RePack

Assassins Creed: Odyssey

RePack

NEED FOR SPEED™ PAYBACK

4 сезон

9 сезон

Бесстыжие 9 сезон

Все сериалы

все сериалы на PB.wtf

RePack

FAR CRY 5
  

Обгоняя время / Серии: 1-4 из 4 (Леонид Пляскин) [2018, Биография, драма, история, WEB-DL 720p] pb.wtf

Обгоняя время через торрент pb.wtf

Размер: 4.21 GB | Добавлен: 7 мес. назад | Торрент скачан:42 раза
Скачать  

19-04-2020 01:45 Обгоняя время Скачать торрент  

Обгоняя время
Год выпуска: 2018
Страна: Россия
Жанр: Биография, драма, история
Продолжительность: ~ 00:47:00
Перевод: Не требуется
Субтитры: отсутствуют

Режиссер: Леонид Пляскин



В ролях: Артём Быстров, Александр Андреев (III), Иван Паршин, Дмитрий Сутырин, Сергей Яценюк, Яков Петров, Дарья Циберкина, Ольга Мирошникова, Наталья Третьякова (V), Вадим Бурлаков, Руслан Барабанов, Полина Воробьёва, Ксения Назарова, Мария Русских, Александр Сулимов, Александр Поляков (II), Полина Сидихина, Антон Гуляев, Сергей Лосев, Александр Солоненко, Дмитрий Быковский-Ромашов, Пётр Журавлёв, Ильгиз Булгаков, Валерий Кухарешин, Андрей Гульнев, Антон Сычёв, Андрей Перович, Сергей Гамов, Ромуальд Макаренко, Александр Удалов, Андрей Лёвин, Александр Сластин, Александр Мартынов (VII), Денис Синявский, Алексей Хореняк, Андрей Кузнецов

Описание: О жизни легендарного конструктора Ростислава Алексеева. В 2016 году исполнилось 100 лет со дня рождения Ростислава Алексеева - человека, изобретениям которого до сих пор нет аналогов во всём мире. Для съёмок картины были подняты уникальные архивы, изучены засекреченные прежде материалы, открыты новые, ранее никому не известные страницы биографии выдающегося конструктора. На основе этих материалов был создан сценарий фильма, открывающий завесу тайн и шпионских интриг, которыми была опутана сфера секретных разработок того времени.

Качество: WEB-DL 720p
Формат: MKV

Видео: MPEG4 AVC Video, H264, 1280x720, 25 fps, ~3000 kbps, 0.128 bit/pixel
Аудио: 48.0 kHz, AC3 Dolby Digital, 2/0 (L,R) ch, ~ 192 kbps
скриншот  скриншот  скриншот  скриншот  

General
Unique ID : 181351140709511169773780515799688770409 (0x886EF5905E13C368B043F338559B7369)
Complete name : D:\Obgonyaya.vremya.2018.WEB-DL.(720p).ExKinoRay\Obgonyaya.vremya.E01.2018.WEB-DL.(720p).ExKinoRay.mkv
Format : Matroska
Format version : Version 4 / Version 2
File size : 1.02 GiB
Duration : 45 min 54 s
Overall bit rate : 3 195 kb/s
Encoded date : UTC 2020-04-18 19:01:37
Writing application : mkvmerge v6.9.1 ('Blue Panther') 64bit built on Apr 18 2014 18:23:38
Writing library : libebml v1.3.0 + libmatroska v1.4.1

Video
ID : 1
Format : AVC
Format/Info : Advanced Video Codec
Format profile : High@L4.1
Format settings : CABAC / 9 Ref Frames
Format settings, CABAC : Yes
Format settings, ReFrames : 9 frames
Codec ID : V_MPEG4/ISO/AVC
Duration : 45 min 54 s
Bit rate : 2 939 kb/s
Width : 1 280 pixels
Height : 720 pixels
Display aspect ratio : 16:9
Frame rate mode : Constant
Frame rate : 25.000 FPS
Color space : YUV
Chroma subsampling : 4:2:0
Bit depth : 8 bits
Scan type : Progressive
Bits/(Pixel*Frame) : 0.128
Stream size : 965 MiB (92%)
Default : No
Forced : No
Color range : Limited
Color primaries : BT.709
Transfer characteristics : BT.709
Matrix coefficients : BT.709

Audio
ID : 2
Format : AC-3
Format/Info : Audio Coding 3
Codec ID : A_AC3
Duration : 45 min 54 s
Bit rate mode : Constant
Bit rate : 192 kb/s
Channel(s) : 2 channels
Channel positions : Front: L R
Sampling rate : 48.0 kHz
Frame rate : 31.250 FPS (1536 SPF)
Bit depth : 16 bits
Compression mode : Lossy
Stream size : 63.0 MiB (6%)
Language : Russian
Service kind : Complete Main
Default : Yes
Forced : No

pb.wtf



Скачать Обгоняя время через торрент https://img12.lostpic.net/2020/04/18/0a84a49ba6436221cdc0c6b165618978.th.jpg Скачать фильм Обгоняя время через торрент бесплантно в хорошем качестве Описание: О жизни легендарного конструктора Ростислава Алексеева. В 2016 году исполнилось 100 лет со дня рождения Ростислава Алексеева - ... 10 10 3
Торрент: Зарегистрирован [2020-04-19 01:45] · скачан: 42 раз
Статус: √ проверено
Размер: 4.21 GB
Как cкачать? Как скачать Обгоняя время через торрент | qTorrent

% Раздел Тема Автор DL S | L
Наши сериалы [ 2.36 GB ] Обгоняя время / Серии: 1-4 из 4 [2018 история биография WEBRip-AVC] aleksan55 Скачать
1 | 0
Наши сериалы [ 6.84 GB ] Обгоняя время / Серии: 1-4 из 4 [2018 Биография история WEB-DL 1080p] bober100 Скачать
1 | 0
Наши сериалы [ 2.89 GB ] Обгоняя время / Серии: 1-4 из 4 [2018 Биография история WEB-DLRip-AVC] bober100 Скачать
2 | 0
Наши сериалы [ 2.74 GB ] Обгоняя время / Серии: 1-4 из 4 [2018 Биография история WEB-DLRip] bober100 Скачать
2 | 0

28-11-2019 20:33  

Отключить всю рекламу на сайте

    Дорогой пользователь! Огромная просьба, поблагодарите релизера, оцените раздачу и оставьте свои комментарий, если Вы скачали Обгоняя время через торрент бесплатно! Внесите свою лепту в развитие PiratBit!
    Комментировать посты могут только пользователи прошедшие не сложную регистрацию
    Показать сообщения:    

    Обгоняя время через торрент
    Скачать бесплатно Обгоняя время
    Обгоняя время скачать торрент
    Обгоняя время смотреть онлайн
    Cкачать фильм Обгоняя время бесплатно
    Обгоняя время скачать торрент в хорошем качестве
    Обгоняя время смотреть онлайн бесплатно в хорошем качестве


    Вы не можете начинать темы
    Вы не можете отвечать на сообщения
    Вы не можете редактировать свои сообщения
    Вы не можете удалять свои сообщения
    Вы не можете голосовать в опросах
    Вы не можете прикреплять файлы к сообщениям
    Вы можете скачивать файлы