1 сезон

3 сезон

iTunes

1

iTunes

DUB Netflix

iTunes

13

1 сезон

RePack

30

Deluxe

pack

Легкие деньги

ВАЖНО

ИГРА 18+

pack

RePack

MK11

RePack

jed

RePack

fifa19

RePack

RDR2

RePack

NEED FOR SPEED™ PAYBACK

4 сезон

9 сезон

Бесстыжие 9 сезон

Все сериалы

все сериалы на PB.wtf

RePack

FAR CRY 5

Anonymous, доброе утро, мы не успеваем до 1 числа собрать деньги на оплату серверов, помогите нам пожалуйста в это трудное время. В качестве благодарности мы отключим Вам всю рекламу на сайте (укажите свой ник в строку Ваше имя)!

×
  
Magnet ссылка

Подводная лодка / Das Boot / Сезон: 2 / Серии: 1-8 из 8 (Андреас Прохаска) [2020, Драма, Военный, WEB-DL 1080p] MVO [SDI Media] pb.wtf

Подводная лодка через торрент pb.wtf

Размер: 25.71 GB | Добавлен: 1 год 1 мес. назад | Торрент скачан:52 раза
Скачать  

24-04-2020 21:52 Подводная лодка Скачать торрент  

Подводная лодка | Das Boot
Год выпуска: 2020
Страна: Германия
Жанр: Драма, военный
Продолжительность: ~01:00:00
Перевод: Профессиональный (многоголосый закадровый) | SDI Media
Субтитры: Отсутствуют

Режиссёр: Андреас Прохаска

В ролях: Филип Бирнштиль, Пит Буковски, Джулиус Фельдмайер, Йоахим Ферстер, Леонард Кунц, Бен Мюнхов, Леонард Шайхер, Том Влашиха, Рик Окон, Аугуст Витгенштайн, Йоханнес Хайнрихс, Пьер Кивитт, Райнер Бок, Лиззи Каплан, Джеймс Д’Арси, Франц Динда, Тьерри Фремон, Виктория Хоган, Винсент Картайзер, Штефан Конарске

Описание: По сюжету действия происходят в 1942 году через несколько месяцев после событий, когда союзникам удалось разгадать код шифровальной машины «Энигма», а на оккупированных территориях развернулась новая волна антинацистского движения. Команде известной субмарины во главе с новым капитаном Клаусом Хоффманом придется пройти через еще более жесткие испытания и военные столкновения. «Подводная лодка» — это история о сложном выборе, выживании, пределах человеческих чувств и жесткой правде жизни во времена бессмысленной войны.

rating

Качество: WEB-DL 1080p
Контейнер: MKV

Видео: MPEG-4 AVC, ~ 7670 Кбит/с, 1920x1080, 25 Кадр/с
Аудио: Русский (AC3, 2 ch, 192 Кбит/с)
Аудио: немецкий (E-AC3, 6ch, 384 Кбит/с)
Аудио: английский (AC3, 2 ch, 192 Кбит/с)
скриншот  скриншот  скриншот  скриншот  скриншот  

Общее
Уникальный идентификатор : 35691286256378359188983494389334856187 (0x1AD9E44627C48254F83B0A030CB4D1FB)
Полное имя : I:\Das.Boot.s02.1080.WEB-DL.H.264.Rus.Deu.Eng-@EniaHD\Das.Boot.s02e02.1080.WEB-DL.H.264.Rus.Deu.Eng-@EniaHD.mkv
Формат : Matroska
Версия формата : Version 4
Размер файла : 3,47 Гбайт
Продолжительность : 58 м. 48 с.
Общий поток : 8440 Кбит/сек
Название фильма : das.boot.s02e01.german.dl.1080p.web.h264-wayne-ParovozN@EniaHD
Дата кодирования : UTC 2020-05-16 15:47:54
Программа кодирования : mkvmerge v46.0.0 ('No Deeper Escape') 64-bit
Библиотека кодирования : libebml v1.3.10 + libmatroska v1.5.2

Видео
Идентификатор : 1
Формат : AVC
Формат/Информация : Advanced Video Codec
Профиль формата : Main@L4
Настройки формата : CABAC / 2 Ref Frames
Параметр CABAC формата : Да
Параметр RefFrames формата : 2 кадра
Идентификатор кодека : V_MPEG4/ISO/AVC
Продолжительность : 58 м. 48 с.
Битрейт : 7670 Кбит/сек
Ширина : 1920 пикселей
Высота : 1080 пикселей
Соотношение сторон : 16:9
Режим частоты кадров : Постоянный
Частота кадров : 25,000 кадров/сек
Цветовое пространство : YUV
Субдискретизация насыщенности : 4:2:0
Битовая глубина : 8 бит
Тип развёртки : Прогрессивная
Бит/(Пиксели*Кадры) : 0.148
Размер потока : 3,15 Гбайт (91%)
Язык : English
Default : Да
Forced : Нет

Аудио #1
Идентификатор : 2
Формат : AC-3
Формат/Информация : Audio Coding 3
Коммерческое название : Dolby Digital
Идентификатор кодека : A_AC3
Продолжительность : 58 м. 39 с.
Вид битрейта : Постоянный
Битрейт : 192 Кбит/сек
Каналы : 2 канала
Channel layout : L R
Частота : 48,0 КГц
Частота кадров : 31,250 кадров/сек (1536 SPF)
Битовая глубина : 16 бит
Метод сжатия : С потерями
Размер потока : 80,5 Мбайт (2%)
Заголовок : MVO (SDI Media)
Язык : Russian
ServiceKind/String : Complete Main
Default : Да
Forced : Нет

Аудио #2
Идентификатор : 3
Формат : E-AC-3
Формат/Информация : Enhanced AC-3
Коммерческое название : Dolby Digital Plus
Идентификатор кодека : A_EAC3
Продолжительность : 58 м. 48 с.
Вид битрейта : Постоянный
Битрейт : 384 Кбит/сек
Каналы : 6 каналов
Channel layout : L R C LFE Ls Rs
Частота : 48,0 КГц
Частота кадров : 31,250 кадров/сек (1536 SPF)
Метод сжатия : С потерями
Размер потока : 162 Мбайт (5%)
Язык : German
ServiceKind/String : Complete Main
Default : Нет
Forced : Нет

Аудио #3
Идентификатор : 4
Формат : AC-3
Формат/Информация : Audio Coding 3
Коммерческое название : Dolby Digital
Идентификатор кодека : A_AC3
Продолжительность : 58 м. 48 с.
Вид битрейта : Постоянный
Битрейт : 192 Кбит/сек
Каналы : 2 канала
Channel layout : L R
Частота : 48,0 КГц
Частота кадров : 31,250 кадров/сек (1536 SPF)
Битовая глубина : 16 бит
Метод сжатия : С потерями
Размер потока : 80,8 Мбайт (2%)
Язык : English
ServiceKind/String : Complete Main
Default : Нет
Forced : Нет

Когда раздача ведётся путём добавления новых серий, при каждом добавлении создётся новый торрент. Чтобы начать докачку новой серии, пользователям необходимо сделать следующее:
(1) остановить скачивание,
(2) удалить старый торрент у себя из клиента (старые серии удалять не надо),
(3) скачать новый торрент и запустить его у себя в клиенте вместо старого, при этом указать клиенту путь в старую папку, куда и должно происходить скачивание новых серий.
Ваш клиент при этом должен произвести хеширование (проверку) старой папки (если не производит сам - помогите ему сделать это), и будет докачивать только те серии, которых у вас ещё нет. Старые серии при этом не удаляются, а продолжают раздаваться!
Eсли вы уже удалили старые серии, то предотвратить повторную закачку старых серий можно, отжав галочку в соответсвующих местах при запуске нового торрента. По возможности, желательно не удалять старые серии как можно дольше, чтобы релизер не столько продолжал раздавать старые серии, а смог сконцентрироваться на новых.
pb.wtf



Скачать Подводная лодка через торрент https://d.radikal.ru/d36/2004/c2/cd1c8e02f061.jpg Скачать фильм Подводная лодка через торрент бесплантно в хорошем качестве Описание: По сюжету действия происходят в 1942 году через несколько месяцев после событий, когда союзникам удалось разгадать код ... 10 10 7
Торрент: Зарегистрирован [2020-05-17 00:22] · скачан: 52 раз
Статус: √ проверено
Размер: 25.71 GB
Как cкачать? Как скачать Подводная лодка через торрент | UTorrent

% Раздел Тема Автор DL S | L
Зарубежные сериалы [ 98.79 GB ] Подводная лодка / Das Boot / Сезон: 2 / Серии: 1-8 из 8 [2020 Военный BD Remux 1080i] MVO [SDI Media] bober100 Скачать
1 | 0
Зарубежные сериалы [ 7.31 GB ] Подводная лодка / Das Boot / Сезон: 2 / Серии: 1-8 из 8 [2020 Военный WEB-DLRip] MVO [SDI Media] bober100 Скачать
2 | 0

28-11-2019 20:33  

Отключить всю рекламу на сайте

17-05-2020 17:10 Подводная лодка Скачать торрент  

первый сезон был огонь.спасибоpb.wtf



24-05-2020 19:33 Подводная лодка Скачать торрент  

Эх... Какой-то глупый сезон, вместо того чтобы показывать как немецкие подводники топят амеров, устроили какую-то междоусобицу. Американская мечта, епрст... pb.wtf



03-05-2021 22:37 Подводная лодка Скачать торрент  

Начнем с того что первая часть снятая в 1982 году и это творение имеет мало общего, так отдаленный сюжет и только. Если вырезать этот тупой треп и половину сериала где показано Французкое сопротивление это еще как то можно смотреть.pb.wtf



    Дорогой пользователь! Огромная просьба, поблагодарите релизера, оцените раздачу и оставьте свои комментарий, если Вы скачали Подводная лодка через торрент бесплатно! Внесите свою лепту в развитие PiratBit!
    Комментировать посты могут только пользователи прошедшие не сложную регистрацию
    Показать сообщения:    

    Подводная лодка через торрент
    Скачать бесплатно Подводная лодка
    Подводная лодка скачать торрент
    Подводная лодка смотреть онлайн
    Cкачать фильм Подводная лодка бесплатно
    Подводная лодка скачать торрент в хорошем качестве
    Подводная лодка смотреть онлайн бесплатно в хорошем качестве


    Вы не можете начинать темы
    Вы не можете отвечать на сообщения
    Вы не можете редактировать свои сообщения
    Вы не можете удалять свои сообщения
    Вы не можете голосовать в опросах
    Вы не можете прикреплять файлы к сообщениям
    Вы можете скачивать файлы