Всегда рабочее зеркало без VPN и Proxy просто перед .vidak.icu напиши любое слово или цифру, Пример http://s5xw.vidak.icu

Лицензия

MVO

1 сезон

1

1 сезон

iTunes

1 сезон

13

1 сезон

Deluxe

pack

Рекомендуем

Repack

30

ВАЖНО

RePack

MK11

RePack

jed

RePack

fifa19

RePack

RDR2

RePack

NEED FOR SPEED™ PAYBACK

Кинопоиск HD

6 сезон

 Острые козырьки 6 сезон

Все сериалы

все сериалы на PB.wtf

RePack

FAR CRY 5
  
Magnet ссылка

Противоестественный Акт / An Unnatural Act (Тим Макдональд) [1985 г., All Sex, Classics, Feature, DVDRip AVC] pb.wtf

Противоестественный Акт через торрент pb.wtf

Размер: 1.49 GB | Добавлен: 2 года 3 мес. назад | Торрент скачан:213 раз
Смотреть онлайн Противоестественный Акт | Скачать    Ребята, помогите собрать деньги на оплату серверов!!!

29-04-2020 06:44 Противоестественный Акт Скачать торрент  

Противоестественный Акт / An Unnatural Act
Год выпуска: 1985

Страна: США

Жанр: All Sex, Classics, Feature

Продолжительность: 01:16:15

Режиссёр: Тим Макдональд

rating

В ролях: Misty Regan, Bridgette Monet, Kimberly Carson, Kristara Barrington, Pamela Jennings, Tanya Lawson, Crystal Sheldon, Desiree Lane, Ginger Lynn, John Leslie, Ron Jeremy, Eric Edwards

Описание: A lusty lampoon of the Hollywood hit «Heaven Can Wait», this epic stars John Leslie as a down-on-his-luck guitarist who only has two things going for him — his motorcycle and his ever-loving girlfriend Desiree Lane. After spending a lusty night in her arms, John heads home on his bike, only to be hit and killed by a car driven by porn producer Eric Edwards. Weeks later, when Desiree tries out for a part in Eric’s latest hardcore production, John’s spectral ghost appears on the scene. He watches as Desiree and Eric get down and dirty, then decides to make the most of his invisibility. He heads to a tennis club, where he joins in on a sultry threesome between a couple of cuties in the women’s locker room. Later on, he finds Desiree’s delectable roommate Kimberly Carson asleep in bed. He sneaks into her room and takes her on in a highly erotic coupling. In the end, Eric’s car careens off of a cliff, enabling John’s ghost to step into his body and continue his affair with Desiree. The whole thing is a bit silly, but it’s played for laughs and never takes itself too seriously. What is serious here is the sex, with a string of blistering boffs featuring some of the most alluring eroticists. Fast-paced fun that delivers the goods time and time again!
Качество: DVDRip AVC
Формат: MKV
Видео: 720x576, MPEG-4 AVC, 2547 Кбит/сек
Аудио: Английский, AC3, 2 ch, 192 Кбит/сек
Видео
Идентификатор : 1
Формат : AVC
Формат/Информация : Advanced Video Codec
Профиль формата : [email protected]
Настройки формата : CABAC / 16 Ref Frames
Параметр CABAC формата : Да
Параметр RefFrames формата : 16 кадров
Идентификатор кодека : V_MPEG4/ISO/AVC
Продолжительность : 1 ч. 16 м.
Битрейт : 2547 Кбит/сек
Ширина : 700 пикселей
Высота : 576 пикселей
Соотношение сторон : 1,297
Режим частоты кадров : Постоянный
Частота кадров : 25,000 кадров/сек
Цветовое пространство : YUV
Субдискретизация насыщенности : 4:2:0
Битовая глубина : 8 бит
Тип развёртки : Прогрессивная
Бит/(Пиксели*Кадры) : 0.253
Размер потока : 1,36 Гбайт (91%)
Библиотека кодирования : x264 core 148 r2708 86b7198
Настройки программы : cabac=1 / ref=16 / deblock=1:-1:-1 / analyse=0x1:0x131 / me=tesa / subme=11 / psy=1 / psy_rd=1.00:0.15 / mixed_ref=1 / me_range=24 / chroma_me=1 / trellis=2 / 8x8dct=0 / cqm=0 / deadzone=21,11 / fast_pskip=0 / chroma_qp_offset=-3 / threads=18 / lookahead_threads=4 / sliced_threads=0 / nr=0 / decimate=1 / interlaced=0 / bluray_compat=0 / constrained_intra=0 / bframes=16 / b_pyramid=2 / b_adapt=2 / b_bias=0 / direct=3 / weightb=1 / open_gop=0 / weightp=2 / keyint=250 / keyint_min=25 / scenecut=40 / intra_refresh=0 / rc_lookahead=60 / rc=crf / mbtree=1 / crf=18.0 / qcomp=0.60 / qpmin=0 / qpmax=69 / qpstep=4 / vbv_maxrate=20000 / vbv_bufsize=25000 / crf_max=0.0 / nal_hrd=none / filler=0 / ip_ratio=1.40 / aq=1:1.00
Default : Нет
Forced : Нет
Цветовой диапазон : Limited
Основные цвета : BT.601 PAL
Характеристики трансфера : BT.709
Коэффициенты матрицы : BT.601

Аудио
Идентификатор : 2
Формат : AC-3
Формат/Информация : Audio Coding 3
Коммерческое название : Dolby Digital
Идентификатор кодека : A_AC3
Продолжительность : 1 ч. 16 м.
Вид битрейта : Постоянный
Битрейт : 192 Кбит/сек
Каналы : 2 канала
ChannelLayout : L R
Частота : 48,0 КГц
Частота кадров : 31,250 кадров/сек (1536 SPF)
Битовая глубина : 16 бит
Метод сжатия : С потерями
Задержка видео : 27 мс.
Размер потока : 105 Мбайт (7%)
ServiceKind/String : Complete Main
Default : Нет
Forced : Нет

скриншот  

pb.wtf



pack Скачать Противоестественный Акт через торрент https://pic1.kartinco.top/images/12/l9tn5.jpg Скачать, смотреть онлайн Противоестественный Акт бесплантно в хорошем качестве Описание: A lusty lampoon of the Hollywood hit «Heaven Can Wait», this epic stars John Leslie as a down-on-his-luck guitarist who only has ... 9.7 10 7
Торрент: Зарегистрирован [2020-04-29 06:44] · скачан: 213 раз
Статус: √ проверено
Размер: 1.49 GB
Как cкачать? Как скачать Противоестественный Акт через торрент | UTorrent

28-11-2019 20:33  

Отключить вcю реклaмy на сайте

    Дорогой пользователь! Огромная просьба, поблагодарите релизера, оцените раздачу и оставьте свои комментарий, если Вы скачали Противоестественный Акт через торрент бесплатно!
    Комментировать посты могут только пользователи прошедшие не сложную регистрацию
    Показать сообщения:    

    Противоестественный Акт через торрент
    Скачать бесплатно Противоестественный Акт
    Противоестественный Акт скачать торрент
    Противоестественный Акт смотреть онлайн
    Cкачать фильм Противоестественный Акт бесплатно
    Противоестественный Акт скачать торрент в хорошем качестве
    Противоестественный Акт смотреть онлайн бесплатно в хорошем качестве


    Вы не можете начинать темы
    Вы не можете отвечать на сообщения
    Вы не можете редактировать свои сообщения
    Вы не можете удалять свои сообщения
    Вы не можете голосовать в опросах
    Вы не можете прикреплять файлы к сообщениям
    Вы можете скачивать файлы