Всегда рабочее зеркало без VPN и Proxy просто перед .vidak.icu напиши любое слово или цифру, Пример http://u8tg.vidak.icu

MVO

MVO

1 сезон

1

1 сезон

iTunes

1 сезон

13

1 сезон

Deluxe

pack

Рекомендуем

Repack

30

ВАЖНО

RePack

MK11

RePack

jed

RePack

fifa19

RePack

RDR2

RePack

NEED FOR SPEED™ PAYBACK

Кинопоиск HD

6 сезон

 Острые козырьки 6 сезон

Все сериалы

все сериалы на PB.wtf

RePack

FAR CRY 5
  
Magnet ссылка

Распространённые скандалы с Лидией Кружевной / The Widespread Scandals of Lydia Lace (Henri Pachard) [1983 г., Classic, Drama, DVDRip] pb.wtf

Распространённые скандалы с Лидией Кружевной через торрент pb.wtf

Раздают: 1 [ 0 KB/s ]
Размер: 1.25 GB | Добавлен: 2 года 3 мес. назад | Торрент скачан:177 раз
Смотреть онлайн Распространённые скандалы с Лидией Кружевной | Скачать    Ребята, помогите собрать деньги на оплату серверов!!!

29-04-2020 09:57 Распространённые скандалы с Лидией Кружевной Скачать торрент  

Распространённые скандалы с Лидией Кружевной / The Widespread Scandals of Lydia Lace
Год выпуска: 1983

Страна: США

Жанр: Classic, Drama

Продолжительность: 01:15:36

Режиссер: Henri Pachard

В ролях: Lee Carroll, Ashley Moore, Robert Kerman, Joanna Storm, Joey Karson, Susan Nero, Joey Silvera, Lisa Cintrice, Sean Elliot, Michael Bruce, Dena Ferrara, Lisa Be, Sharon Kane, Joe Santini, Kenny Dee

Описание: Lee Carroll and Ashley Moore star as a couple who fantasize about out-there sexual antics, but who are constrained by their own hang-ups. Ashley’s a lawyer whose clients include tasty young Joanna Storm, a gal who wants out of her marriage because her hubby keeps insisting on threesomes with a gal they met at a swing club. Lee is a shrink whose clients include a guy who whines that his young wife craves threesomes with a gal they met at a swing club. Ashley’s also enjoying an affair with scrumptious Sharon Mitchell that leaves him too worn out to perform once he gets back home with Lee. One night, Lee and Ashley decide to go to the swing club and check it out for themselves. To their surprise, they find that their clients are in fact married to one another – and the gal they’re trysting with is none other than Sharon Mitchell! Lee ends up delving into her deepest desires when Joanna and Sharon show her the Sapphic side of sensual satisfaction.
Качество: DVDRip
Формат: MP4
Видео: 702x480, AVC, 2166 Кбит/сек
Аудио: Английский, AAC, 1 ch, 192 Кбит/сек
Видео
Идентификатор : 1
Формат : AVC
Формат/Информация : Advanced Video Codec
Профиль формата : [email protected]
Настройки формата : CABAC / 1 Ref Frames
Параметр CABAC формата : Да
Параметр RefFrames формата : 1 кадр
Параметр GOP формата : M=1, N=25
Идентификатор кодека : avc1
Идентификатор кодека/Информация : Advanced Video Coding
Продолжительность : 1 ч. 15 м.
Вид битрейта : Постоянный
Битрейт : 2166 Кбит/сек
Ширина : 702 пикселя
Высота : 480 пикселей
Соотношение сторон : 4:3
Режим частоты кадров : Переменный
Частота кадров : 24,118 кадра/сек
Минимальная частота кадров : 12,050 кадров/сек
Максимальная частота кадров : 1932,500 кадра/сек
Частота кадров в оригинале : 24,119 кадра/сек
Цветовое пространство : YUV
Субдискретизация насыщенности : 4:2:0
Битовая глубина : 8 бит
Тип развёртки : Прогрессивная
Бит/(Пиксели*Кадры) : 0.266
Размер потока : 1,14 Гбайт (92%)
Язык : English
Codec configuration box : avcC

Аудио
Идентификатор : 2
Формат : AAC LC
Формат/Информация : Advanced Audio Codec Low Complexity
Идентификатор кодека : mp4a-40-2
Продолжительность : 1 ч. 15 м.
Duration_LastFrame : 1 мс.
Вид битрейта : Постоянный
Битрейт : 192 Кбит/сек
Каналы : 1 канал
ChannelLayout : C
Частота : 48,0 КГц
Частота кадров : 46,875 кадров/сек (1024 SPF)
Метод сжатия : С потерями
Размер потока : 106 Мбайт (8%)
Default : Да
AlternateGroup/String : 1

скриншот  

pb.wtf



pack Скачать Распространённые скандалы с Лидией Кружевной через торрент https://pic1.kartinco.top/images/12/3x1wp.jpg Скачать, смотреть онлайн Распространённые скандалы с Лидией Кружевной бесплантно в хорошем качестве Описание: Lee Carroll and Ashley Moore star as a couple who fantasize about out-there sexual antics, but who are constrained by their own ... 9.8 10 4
Торрент: Зарегистрирован [2020-04-29 09:57] · скачан: 177 раз
Статус: √ проверено
Размер: 1.25 GB
Как cкачать? Как скачать Распространённые скандалы с Лидией Кружевной через торрент | UTorrent

28-11-2019 20:33  

Отключить вcю реклaмy на сайте

    Дорогой пользователь! Огромная просьба, поблагодарите релизера, оцените раздачу и оставьте свои комментарий, если Вы скачали Распространённые скандалы с Лидией Кружевной через торрент бесплатно!
    Комментировать посты могут только пользователи прошедшие не сложную регистрацию
    Показать сообщения:    

    Распространённые скандалы с Лидией Кружевной через торрент
    Скачать бесплатно Распространённые скандалы с Лидией Кружевной
    Распространённые скандалы с Лидией Кружевной скачать торрент
    Распространённые скандалы с Лидией Кружевной смотреть онлайн
    Cкачать фильм Распространённые скандалы с Лидией Кружевной бесплатно
    Распространённые скандалы с Лидией Кружевной скачать торрент в хорошем качестве
    Распространённые скандалы с Лидией Кружевной смотреть онлайн бесплатно в хорошем качестве


    Вы не можете начинать темы
    Вы не можете отвечать на сообщения
    Вы не можете редактировать свои сообщения
    Вы не можете удалять свои сообщения
    Вы не можете голосовать в опросах
    Вы не можете прикреплять файлы к сообщениям
    Вы можете скачивать файлы