Ссылка на приватное зеркало всего за 1$. Внимание количество ограничено!!!

iTunes

iTunes

iTunes

1

iTunes

iTunes

iTunes

iTunes

iTunes

30
pack

$ от Little Big

ВАЖНО

!!Акция!!

Alien_RageХит недели

RePack

Resident Evil 21

ИГРА 18+

pack

RePack

jed

!!Акция!!

Alien_Rage

RePack

fifa19

RePack

Assassins Creed: Odyssey

RePack

NEED FOR SPEED™ PAYBACK

4 сезон

9 сезон

Бесстыжие 9 сезон

Все сериалы

все сериалы на PB.wtf

RePack

FAR CRY 5
  

Огненные птицы / Fire Birds (Дэвид Грин) [1990 г., Боевик, приключения, BDRip 720p / 60 FPS, Авторский (одноголосый)] от R.G. HD-Films pb.wtf

Огненные птицы через торрент pb.wtf

Раздают: 2 [ 0 KB/s ]
Размер: 3.86 GB | Добавлен: 1 мес. 23 д. назад | Торрент скачан:46 раз
Скачать  

22-05-2020 15:37 Огненные птицы Скачать торрент  

Огненные птицы / Fire Birds
Год выпуска: : 1990
Страна: : США
Жанр: : Боевик, Приключения
Продолжительность: 01:26:38
Перевод: AVO (Е.Хрусталев (Латышев))

Режиссер: Дэвид Грин

Бюджет: $22 000 000
Премьера в мире: 25 мая 1990

rating

В ролях: Николас Кейдж, Томми Ли Джонс, Шон Янг, Брайан Кестнер, Иллэна Дайамант, Дейл Дай, Мэри Эллен Трейнор, Дж.А. Престон, Питер Онорати, Чарльз Лэниер

Сюжет фильма: ВВС США проводит спецоперации на территории одной из стран Латинской Америки с целью уничтожить местные наркокартели. Предыдущие попытки не принесли результата — у местной мафии наёмники из «красной» Восточной Европой, поставляющей высококлассных пилотов. Но теперь в бой полетят вертолёты Apache, управляемые лучшими из лучших…

Качество видео: BDRip 720p / 60 FPS
Формат: MKV
Видео кодек: H.264
Аудио кодек: AC3
Видео : x264, 1280 x 720 ( 16:9 ), 6182 kbps, 60,000 fps, ( 0.112 bpp)
Аудио : Русский, AC-3, 48.0 KHz, 2 ch, 192 Kbps AVO (Е.Хрусталев (Латышев))
Релиз от:

скриншот   скриншот   скриншот   скриншот   скриншот   скриншот  Автор рипа: slaventi-69
Общее
Уникальный идентификатор : 241555305442665126190082427774786932137 (0xB5B9DC0E9959705CB810479DB3C50DA9)
Полное имя : F:\Fire.Birds.(1990).BDRip.720p.(60 Fps).mkv
Формат : Matroska
Версия формата : Version 4
Размер файла : 3,86 Гбайт
Продолжительность : 1 ч. 26 м.
Общий поток : 6378 Кбит/сек
Название фильма : Огненные птицы / Fire Birds (1990) BDRip 720p (60 Fps)
Дата кодирования : UTC 2020-05-18 15:13:18
Программа кодирования : mkvmerge v12.0.0 ('Trust / Lust') 64bit
Библиотека кодирования : libebml v1.3.4 + libmatroska v1.4.5

Видео
Идентификатор : 1
Формат : AVC
Формат/Информация : Advanced Video Codec
Профиль формата : High@L4.1
Настройки формата : CABAC / 8 Ref Frames
Параметр CABAC формата : Да
Параметр RefFrames формата : 8 кадров
Идентификатор кодека : V_MPEG4/ISO/AVC
Продолжительность : 1 ч. 26 м.
Битрейт : 6182 Кбит/сек
Ширина : 1280 пикселей
Высота : 720 пикселей
Соотношение сторон : 16:9
Режим частоты кадров : Постоянный
Частота кадров : 60,000 кадров/сек
Цветовое пространство : YUV
Субдискретизация насыщенности : 4:2:0
Битовая глубина : 8 бит
Тип развёртки : Прогрессивная
Бит/(Пиксели*Кадры) : 0.112
Размер потока : 3,74 Гбайт (97%)
Заголовок : slaventi-69 ( R.G. HD-Films | 60 fps )
Библиотека кодирования : x264 core 130 r2273 b3065e6
Настройки программы : cabac=1 / ref=8 / deblock=1:-1:-1 / analyse=0x3:0x133 / me=umh / subme=7 / psy=1 / psy_rd=1.00:0.00 / mixed_ref=1 / me_range=28 / chroma_me=1 / trellis=2 / 8x8dct=1 / cqm=0 / deadzone=21,11 / fast_pskip=0 / chroma_qp_offset=-2 / threads=6 / lookahead_threads=1 / sliced_threads=0 / nr=0 / decimate=1 / interlaced=0 / bluray_compat=0 / constrained_intra=0 / bframes=5 / b_pyramid=2 / b_adapt=2 / b_bias=0 / direct=3 / weightb=1 / open_gop=0 / weightp=2 / keyint=600 / keyint_min=25 / scenecut=40 / intra_refresh=0 / rc=crf / mbtree=0 / crf=17.2 / qcomp=0.60 / qpmin=0 / qpmax=69 / qpstep=4 / ip_ratio=1.40 / pb_ratio=1.30 / aq=1:1.00
Язык : English
Default : Да
Forced : Нет

Аудио
Идентификатор : 2
Формат : AC-3
Формат/Информация : Audio Coding 3
Коммерческое название : Dolby Digital
Идентификатор кодека : A_AC3
Продолжительность : 1 ч. 26 м.
Вид битрейта : Постоянный
Битрейт : 192 Кбит/сек
Каналы : 2 канала
Channel layout : L R
Частота : 48,0 КГц
Частота кадров : 31,250 кадров/сек (1536 SPF)
Битовая глубина : 16 бит
Метод сжатия : С потерями
Размер потока : 119 Мбайт (3%)
Заголовок : AVO (Е.Хрусталев (Латышев))
Язык : Russian
ServiceKind/String : Complete Main
Default : Да
Forced : Нет

Просьба к переливающим на другие сайты, в оформлении указывайте пожалуйста авторство группы R.G. HD-Films pb.wtf



Скачать Огненные птицы через торрент http://s011.radikal.ru/i315/1605/47/5ea38c8e26bb.jpg Скачать фильм Огненные птицы через торрент бесплантно в хорошем качестве В ролях: Николас Кейдж, Томми Ли Джонс, Шон Янг, Брайан Кестнер, Иллэна Дайамант, Дейл Дай, Мэри Эллен Трейнор, Дж.А. Престон, Питер ... 10 10 4
Торрент: Зарегистрирован [2020-05-22 15:37] · скачан: 46 раз
Статус: √ проверено
Размер: 3.86 GB
Как cкачать? Как скачать Огненные птицы через торрент | qTorrent

28-11-2019 20:33  

Отключить всю рекламу на сайте

23-05-2020 02:35 Огненные птицы Скачать торрент  

Вам от меня большая благодарность за фильм. Про вертолётчиков хороших фильмов немного снято, сюжет в основном не крутится вокруг них, разве что еще Голубой гром с Роем Шайдером больше на ум ничто не приходит. Черный ястреб это не то. Кейдж, Янг и Джонс здесь в ударе. Спасибо еще раз. В ларец по любому.pb.wtf



    Дорогой пользователь! Огромная просьба, поблагодарите релизера, оцените раздачу и оставьте свои комментарий, если Вы скачали Огненные птицы через торрент бесплатно! Внесите свою лепту в развитие PiratBit!
    Комментировать посты могут только пользователи прошедшие не сложную регистрацию
    Показать сообщения:    

    Огненные птицы через торрент
    Скачать бесплатно Огненные птицы
    Огненные птицы скачать торрент
    Огненные птицы смотреть онлайн
    Cкачать фильм Огненные птицы бесплатно
    Огненные птицы скачать торрент в хорошем качестве
    Огненные птицы смотреть онлайн бесплатно в хорошем качестве


    Вы не можете начинать темы
    Вы не можете отвечать на сообщения
    Вы не можете редактировать свои сообщения
    Вы не можете удалять свои сообщения
    Вы не можете голосовать в опросах
    Вы не можете прикреплять файлы к сообщениям
    Вы можете скачивать файлы