Ссылка на приватное зеркало нашего сайта всего за 1$. Внимание количество ограничено!!!

2 сезон

iTunes

1 сезон

1

2 сезон

2 сезон

iTunes

1 сезон

RePack

30

Новинка

ВАЖНО

ИГРА 18+

pack

RePack

MK11
pack

Забери бонус

RePack

jed

!!Акция!!

Alien_Rage

RePack

fifa19

RePack

Assassins Creed: Odyssey

RePack

NEED FOR SPEED™ PAYBACK

4 сезон

9 сезон

Бесстыжие 9 сезон

Все сериалы

все сериалы на PB.wtf

RePack

FAR CRY 5
  

Герой по вызову / Сезон: 1 / Серии: 1-10 из 10 (Анна Зайцева) [2020, Детектив, SATRip] pb.wtf

Герой по вызову через торрент pb.wtf

Размер: 5.93 GB | Добавлен: 5 мес. 9 д. назад | Торрент скачан:86 раз
Скачать  

16-06-2020 04:48 Герой по вызову Скачать торрент  

Герой по вызову
Год выпуска: 2020
Страна: Россия
Жанр: Детектив
Продолжительность: ~ 00:49:00
Субтитры: отсутствуют

Режиссер: Анна Зайцева



В ролях: Евгений Миллер, Кристина Асмус, Николай Клямчук, Марина Калецкая, Владимир Виноградов, Юрий Николаенко, Михаил Евланов, Алексей Федькин, Олег Тактаров, Константин Тополага, Ирина Вербицкая, Константин Соловьёв, Наталия Лесниковская, Никита Тезов, Константин Быков, Даниил Кокин, Татьяна Ястребова

Описание: Иван Лутошин, врач по профессии и неудачник по жизни, узнает, что у него неоперабельная опухоль мозга. Он не хочет ждать мучительного конца и решает покончить жизнь самоубийством: напившись, он выходит на скоростную трассу и встаёт на полосе. Случайный знакомый – оперуполномоченный полиции Илья Туманов – спасает Лутошину жизнь и предлагает ему помощь, а именно – неофициальное участие в смертельно опасных операциях по поимке бандитов: если убьют – хотя бы не напрасно. Помогая Туманову Лутошин знакомится со следователем СК Елизаветой Леоновой и вызывает у неё живой интерес, перетекающий в симпатию – ей импонирует его безрассудность и отвага. Спустя некоторое время, Лутошин вновь проходит медицинское обследование, на котором выясняется, что опухоль замедлила рост. Он делает любопытный вывод: опухоль перестаёт расти, как только возникает реальная угроза жизни, связанная с помощью попавшим в беду людям. И теперь, чтобы выжить, ему нужно постоянно совершать настоящие подвиги.

Качество: SATRip
Формат: AVI

Видео: XviD, ~ 1650 Кбит/с, 720x400
Аудио: MP3, 2 ch, 192 Кбит/с
скриншот  скриншот  скриншот  скриншот  

Общее
Полное имя : C:\Geroi.po.vyzovu.2020.XviD.SATRip.25Kuzmich\Geroi.po.vyzovu.e01.XviD.SATRip.25Kuzmich.avi
Формат : AVI
Формат/Информация : Audio Video Interleave
Размер файла : 627 Мбайт
Продолжительность : 47 м. 18 с.
Общий поток : 1852 Кбит/сек
Программа кодирования : VirtualDubMod 1.5.10.3 (build 2550/release)
Библиотека кодирования : VirtualDubMod build 2550/release

Видео
Идентификатор : 0
Формат : MPEG-4 Visual
Профиль формата : Advanced Simple@L5
Настройки формата : BVOP1
Параметр BVOP формата : 1
Параметр QPel формата : Нет
Параметр GMC формата : Без точки перехода
Параметр матрицы формата : Default (MPEG)
Идентификатор кодека : XVID
Идентификатор кодека/Подсказка : XviD
Продолжительность : 47 м. 18 с.
Битрейт : 1577 Кбит/сек
Ширина : 720 пикселей
Высота : 400 пикселей
Соотношение сторон : 16:9
Частота кадров : 25,000 кадров/сек
Цветовое пространство : YUV
Субдискретизация насыщенности : 4:2:0
Битовая глубина : 8 бит
Тип развёртки : Прогрессивная
Метод сжатия : С потерями
Бит/(Пиксели*Кадры) : 0.219
Размер потока : 534 Мбайт (85%)
Библиотека кодирования : XviD 73

Аудио
Идентификатор : 1
Формат : MPEG Audio
Версия формата : Version 1
Профиль формата : Layer 3
Настройки формата : Joint stereo / MS Stereo
Идентификатор кодека : 55
Идентификатор кодека/Подсказка : MP3
Продолжительность : 47 м. 18 с.
Вид битрейта : Постоянный
Битрейт : 192 Кбит/сек
Каналы : 2 канала
Частота : 48,0 КГц
Частота кадров : 41,667 кадра/сек (1152 SPF)
Метод сжатия : С потерями
Размер потока : 65,0 Мбайт (10%)
Выравнивание : Соединение по промежуткам
Библиотека кодирования : LAME3.99r
Настройки программы : -m j -V 4 -q 2 -lowpass 18.6 -b 192

Когда раздача ведётся путём добавления новых серий, при каждом добавлении создётся новый торрент. Чтобы начать докачку новой серии, пользователям необходимо сделать следующее:
(1) остановить скачивание,
(2) удалить старый торрент у себя из клиента (старые серии удалять не надо),
(3) скачать новый торрент и запустить его у себя в клиенте вместо старого, при этом указать клиенту путь в старую папку, куда и должно происходить скачивание новых серий.
Ваш клиент при этом должен произвести хеширование (проверку) старой папки (если не производит сам - помогите ему сделать это), и будет докачивать только те серии, которых у вас ещё нет. Старые серии при этом не удаляются, а продолжают раздаваться!
Eсли вы уже удалили старые серии, то предотвратить повторную закачку старых серий можно, отжав галочку в соответсвующих местах при запуске нового торрента. По возможности, желательно не удалять старые серии как можно дольше, чтобы релизер не столько продолжал раздавать старые серии, а смог сконцентрироваться на новых.
pb.wtf



Скачать Герой по вызову через торрент https://i112.fastpic.ru/big/2020/0615/3a/a6695c44f8c4a548d5a45d54fe31393a.jpg Скачать фильм Герой по вызову через торрент бесплантно в хорошем качестве Описание: Иван Лутошин, врач по профессии и неудачник по жизни, узнает, что у него неоперабельная опухоль мозга. Он не хочет ждать ... 10 10 11
Торрент: Зарегистрирован [2020-06-19 16:43] · скачан: 86 раз
Статус: √ проверено
Размер: 5.93 GB
Как cкачать? Как скачать Герой по вызову через торрент | qTorrent

% Раздел Тема Автор DL S | L
Наши сериалы [ 11.97 GB ] Герой по вызову / Сезон: 1 / Серии: 1-10 из 10 [2020 WEBRip 720p] bober100 Скачать
2 | 0
Наши сериалы [ 19.94 GB ] Герой по вызову / Сезон: 1 / Серии: 1-10 из 10 [2020 WEBRip 1080p] bober100 Скачать
5 | 1
Наши сериалы [ 5.84 GB ] Герой по вызову / Сезон: 1 / Серии: 1-10 из 10 [2020 WEBRip] bober100 Скачать
4 | 0
Наши сериалы [ 7.12 GB ] Герой по вызову / Сезон: 1 / Серии: 1-10 из 10 [2020 WEBRip-AVC] bober100 Скачать
2 | 0

28-11-2019 20:33  

Отключить всю рекламу на сайте

29-06-2020 13:59 Герой по вызову Скачать торрент  

Хороший сериал, мне понравился.pb.wtf



    Дорогой пользователь! Огромная просьба, поблагодарите релизера, оцените раздачу и оставьте свои комментарий, если Вы скачали Герой по вызову через торрент бесплатно! Внесите свою лепту в развитие PiratBit!
    Комментировать посты могут только пользователи прошедшие не сложную регистрацию
    Показать сообщения:    

    Герой по вызову через торрент
    Скачать бесплатно Герой по вызову
    Герой по вызову скачать торрент
    Герой по вызову смотреть онлайн
    Cкачать фильм Герой по вызову бесплатно
    Герой по вызову скачать торрент в хорошем качестве
    Герой по вызову смотреть онлайн бесплатно в хорошем качестве


    Вы не можете начинать темы
    Вы не можете отвечать на сообщения
    Вы не можете редактировать свои сообщения
    Вы не можете удалять свои сообщения
    Вы не можете голосовать в опросах
    Вы не можете прикреплять файлы к сообщениям
    Вы можете скачивать файлы