Ссылка на приватное зеркало нашего сайта всего за 1$. Внимание количество ограничено!!!

2 сезон

iTunes

1 сезон

1

2 сезон

2 сезон

iTunes

1 сезон

RePack

30

Ultimate

ВАЖНО

ИГРА 18+

pack

RePack

MK11
pack

Забери бонус

RePack

jed

!!Акция!!

Alien_Rage

RePack

fifa19

RePack

Assassins Creed: Odyssey

RePack

NEED FOR SPEED™ PAYBACK

4 сезон

9 сезон

Бесстыжие 9 сезон

Все сериалы

все сериалы на PB.wtf

RePack

FAR CRY 5
  

Секунда до / Сезон: 1 / Серии: 1-8 из 8 (Алексей Колмогоров) [2007, Мистическая Драма, HDTVRip-AVC] pb.wtf

Секунда до через торрент pb.wtf

Размер: 6.18 GB | Добавлен: 2 года 4 мес. назад | Торрент скачан:99 раз
Скачать  

01-08-2018 05:31 Секунда до Скачать торрент  

Секунда до Год выпуска: 2007
Производство: Россия, Украина, Star Media, Megapolis Film Production
Жанр: Мистика, триллер, мелодрама, приключения
Продолжительность: 00:50:00 / Серия
Субтитры: Нет

Режиссёр: Алексей Колмогоров



В ролях:

Александр Тютин, Нодар Мгалоблишвили, Константин Стрельников, Кирилл Бурдихин, Людмила Шмелева, Денис Харитонов, Евгения Бурдихина, Екатерина Бренер, Наташа Швец (II), Игорь Скляр, Олег Тактаров, Лев Борисов, Игорь Фурманюк, Вера Воронкова, Андрис Лиелайс, Сергей Бездушный, Илья Иосифов, Георгий Дрозд, Николай Гусев, Константин Корецкий, Владислав Мамчур, Татьяна Печенкина, Юрий Яковлев-Суханов, Максим Записочный, Олег Примогенов

Описание:

Преуспевающий бизнесмен Олег узнает, что его бывшая возлюбленная умерла при родах. Теперь он должен признать своего ребенка. Олег не готов сделать этот шаг. Он напивается и попадает в автомобильную аварию… Герой должен был погибнуть, но в последнюю секунду ему дается шанс: Олег становится одним из «ангелов добра» в команде таких же, как он — однажды принявших неверное решение. Сержанту, игроку, мошеннице, невесте, мальчику-мажору и, наконец, Олегу предоставляется возможность изменить свою судьбу и вернуться назад к живым…

Качество: HDTVRip-AVC
Формат: MKV

Видео: MPEG-4 AVC, ~ 2000 Кбит/с, 1024x576, 25,000 FPS, 0,136 Bits/(Pixel*Frame)
Аудио: AC3, 2 channels, 192 kb/s, 48.0 kHz
General
Unique ID : 209810111801084674559061144574302529831 (0x9DD7F52B84D0711097FA3EB9B7DAA927)
Complete name : E:\TEMP\Sekunda.do.(2007).HDTVRip.AVC.Files-x.Sekunda.do.(2007).HDTVRip.AVC.by.Серый1779.Files-x.mkv
Format : Matroska
Format version : Version 2
File size : 799 MiB
Duration : 50 min 57 s
Overall bit rate : 2 193 kb/s
Encoded date : UTC 2017-01-05 04:06:02
Writing application : mkvmerge v6.1.0 ('Old Devil') built on Mar 4 2013 09:10:42
Writing library : libebml v1.3.0 + libmatroska v1.4.0

Video
ID : 1
Format : AVC
Format/Info : Advanced Video Codec
Format profile : High@L4.1
Format settings, CABAC : Yes
Format settings, ReFrames : 9 frames
Codec ID : V_MPEG4/ISO/AVC
Duration : 50 min 57 s
Bit rate : 2 000 kb/s
Width : 1 024 pixels
Height : 576 pixels
Display aspect ratio : 16:9
Frame rate mode : Constant
Frame rate : 25.000 FPS
Color space : YUV
Chroma subsampling : 4:2:0
Bit depth : 8 bits
Scan type : Progressive
Bits/(Pixel*Frame) : 0.136
Stream size : 713 MiB (89%)
Writing library : x264 core 130 r2273 b3065e6
Encoding settings : cabac=1 / ref=9 / deblock=1:-2:-1 / analyse=0x3:0x133 / me=umh / subme=9 / psy=1 / psy_rd=1.00:0.15 / mixed_ref=1 / me_range=32 / chroma_me=1 / trellis=2 / 8x8dct=1 / cqm=0 / deadzone=21,11 / fast_pskip=0 / chroma_qp_offset=-3 / threads=6 / lookahead_threads=1 / sliced_threads=0 / nr=0 / decimate=1 / interlaced=0 / bluray_compat=0 / constrained_intra=0 / bframes=9 / b_pyramid=2 / b_adapt=2 / b_bias=0 / direct=1 / weightb=1 / open_gop=0 / weightp=2 / keyint=250 / keyint_min=25 / scenecut=40 / intra_refresh=0 / rc_lookahead=40 / rc=2pass / mbtree=1 / bitrate=2000 / ratetol=1.0 / qcomp=0.60 / qpmin=0 / qpmax=69 / qpstep=4 / cplxblur=20.0 / qblur=0.5 / ip_ratio=1.40 / aq=2:1.00
Default : Yes
Forced : No
Color range : Limited
Color primaries : BT.709
Transfer characteristics : BT.709
Matrix coefficients : BT.709

Audio
ID : 2
Format : AC-3
Format/Info : Audio Coding 3
Mode extension : CM (complete main)
Format settings, Endianness : Big
Codec ID : A_AC3
Duration : 50 min 57 s
Bit rate mode : Constant
Bit rate : 192 kb/s
Channel(s) : 2 channels
Channel positions : Front: L R
Sampling rate : 48.0 kHz
Frame rate : 31.250 FPS (1536 spf)
Bit depth : 16 bits
Compression mode : Lossy
Stream size : 70.0 MiB (9%)
Default : Yes
Forced : No
pb.wtf



Скачать Секунда до через торрент http://s018.radikal.ru/i517/1701/90/f2e5e2ee03c3.jpg Скачать фильм Секунда до через торрент бесплантно в хорошем качестве Описание: Преуспевающий бизнесмен Олег узнает, что его бывшая возлюбленная умерла при родах. Теперь он должен признать своего ребенка. Олег ... 10 10 4
Торрент: Зарегистрирован [2018-08-01 05:31] · скачан: 99 раз
Статус: √ проверено
Размер: 6.18 GB
Как cкачать? Как скачать Секунда до через торрент | qTorrent

28-11-2019 20:33  

Отключить всю рекламу на сайте

27-06-2020 09:34 Секунда до Скачать торрент  

хороший,интересный сериал про добро и зло,про настоящую дружбу и предательство."Граф Колиостро из Формула Любви","Антибиотик из Бандитского Питербурга" и много много других замечательных актёров

большое спасибоpb.wtf



    Дорогой пользователь! Огромная просьба, поблагодарите релизера, оцените раздачу и оставьте свои комментарий, если Вы скачали Секунда до через торрент бесплатно! Внесите свою лепту в развитие PiratBit!
    Комментировать посты могут только пользователи прошедшие не сложную регистрацию
    Показать сообщения:    

    Секунда до через торрент
    Скачать бесплатно Секунда до
    Секунда до скачать торрент
    Секунда до смотреть онлайн
    Cкачать фильм Секунда до бесплатно
    Секунда до скачать торрент в хорошем качестве
    Секунда до смотреть онлайн бесплатно в хорошем качестве


    Вы не можете начинать темы
    Вы не можете отвечать на сообщения
    Вы не можете редактировать свои сообщения
    Вы не можете удалять свои сообщения
    Вы не можете голосовать в опросах
    Вы не можете прикреплять файлы к сообщениям
    Вы можете скачивать файлы