Ссылка на приватное зеркало нашего сайта всего за 1$. Внимание количество ограничено!!!

2 сезон

iTunes

1 сезон

1

iTunes

iTunes

iTunes

1 сезон

RePack

30

ИГРА 18+

pack

ВАЖНО

!!Акция!!

Alien_RageХит недели

RePack

MK11
pack

Забери бонус

RePack

jed

!!Акция!!

Alien_Rage

RePack

fifa19

RePack

Assassins Creed: Odyssey

RePack

NEED FOR SPEED™ PAYBACK

4 сезон

9 сезон

Бесстыжие 9 сезон

Все сериалы

все сериалы на PB.wtf

RePack

FAR CRY 5
  

Боевые роботы / Robo Warriors (Йен Бэрри / Ian Barry) [1996, фантастика, боевик, приключения, DVDRemux] [DVO] (НТВ) + [MVO] (РТР) + [AVO] (Сербин) pb.wtf

Боевые роботы через торрент pb.wtf

Размер: 4.25 GB | Добавлен: 3 мес. 6 д. назад | Торрент скачан:22 раза
Скачать  

08-07-2019 15:30 Боевые роботы Скачать торрент  

Боевые роботы
Robo Warriors
Страна: США
Жанр: фантастика, боевик, приключения,
Год выпуска: 1996
Продолжительность: 01:29:23
Перевод 1: профессиональный (двухголосый закадровый) НТВ
Перевод 2: профессиональный (многоголосый закадровый) РТР
Перевод 3: авторский (одноголосый закадровый) (Ю.Сербин)
Субтитры: датские




Режиссёр: Йен Бэрри / Ian Barry

В ролях: Джеймс Римар / James Remar, Кайл Ховард / Kyle Howard, Джеймс Толкан / James Tolkan, Джеймс Лью / James Lew, Бернард Кейтс / Bernard Kates, Джеймс Уит / James With
Описание: В результате опустошительной межпланетной войны практически разрушена Земля и соседние планеты. Могущественные победители, воины — Терадаксы правят на Земле. Только Гибсон — величайший воин-робот способен противостоять инструменту смерти роботов, внушающему ужас Голиафу.

Качество: DVDRemux
Формат: MKV
Видео: 720x576 (4:3) @ 768x576, MPEG-2 Video / 6000 kbps / 25,000 fps /
Аудио 1: AC3, 48 kHz, 2ch, 192.00 kbps: [НТВ]
Аудио 2: AC3, 48 kHz, 2ch, 192.00 kbps: [РТР]
Аудио 3: MP3, 48 kHz, 2ch, 128.00 kbps: [Сербин]
Аудио 4: AC3, 48 kHz, 2ch, 224.00 kbps: [ENG]
Разбивка на главы: да
Формат субтитров: оригинал
Благодарности:
SuperDVD01 - за перевод НТВ
misha-nfs - за перевод РТР
JUSTKANT - за синхронизацию переводов

Title: ROBO_WARRIORS_ CG
Size: 4.04 Gb ( 4 232 374,00 KBytes ) - DVD-5
Enabled regions: 1, 2, 3, 4, 5, 6, 7, 8

VTS_01 :
Play Length: 00:00:11
Video: PAL 4:3 (720x576) VBR
Audio:
English (Dolby AC3, 2 ch)

VTS_02 :
Play Length: 00:00:19
Video: PAL 4:3 (720x576) VBR
Audio:
English (Dolby AC3, 2 ch)

VTS_03 :
Play Length: 00:01:12
Video: PAL 4:3 (720x576) VBR
Audio:
English (Dolby AC3, 2 ch)
Subtitles:
English

VTS_04 :
Play Length: 01:29:23+{01:29:23}
Video: PAL 4:3 (720x576) VBR
Audio:
English, AC3, 2/0 (L,R) ch, 224 kbps, Delay 0 mSec

Subtitles:
Nederlands

VTS_05 :
Play Length: 00:00:00+{00:00:00}
Video: PAL 4:3 (720x576) VBR
Audio:
English (Dolby AC3, 2 ch)

* Menus Information *

VIDEO_TS Menu
Video:
PAL 4:3 (720x576) VBR
English Language Unit :
Title Menu

VTS_01 Menu
Video:
PAL 4:3 (720x576) VBR
Audio:
Not specified (Dolby AC3, 2 ch)
English Language Unit :
Root Menu

VTS_02 Menu
Video:
PAL 4:3 (720x576) VBR
English Language Unit :
Root Menu

VTS_03 Menu
Video:
PAL 4:3 (720x576) VBR
English Language Unit :
Root Menu

VTS_04 Menu
Video:
PAL 4:3 (720x576) VBR
English Language Unit :
Root Menu
Chapter (PTT) Menu

VTS_05 Menu
Video:
PAL 4:3 (720x576) VBR
English Language Unit :
Root Menu
Chapter (PTT) Menu
Общее
Уникальный идентификатор : 89511186635605429454555965100529691892 (0x43573A3B77E47BC9B94FACE2970E2CF4)
Полное имя : D:\Ремуксы\[AORE] Cult Films Remuxes\Robo Warriors 1996\Robo Warriors 1996.mkv
Формат : Matroska
Версия формата : Version 4
Размер файла : 4,21 Гбайт
Продолжительность : 1 ч. 29 м.
Общий поток : 6740 Кбит/сек
Дата кодирования : UTC 2019-05-20 17:41:54
Программа кодирования : mkvmerge v33.1.0 ('Primrose') 64-bit
Библиотека кодирования : libebml v1.3.7 + libmatroska v1.5.0

Видео
Идентификатор : 1
Формат : MPEG Video
Версия формата : Version 2
Профиль формата : Main@Main
Настройки формата : CustomMatrix / BVOP
Параметр BVOP формата : Да
Параметр матрицы формата : Выборочная
Параметр GOP формата : M=3, N=15
Структура изображения : Frame
Идентификатор кодека : V_MPEG2
Идентификатор кодека/Информация : MPEG 1 or 2 Video
Продолжительность : 1 ч. 29 м.
Вид битрейта : Постоянный
Битрейт : 6000 Кбит/сек
Ширина : 720 пикселей
Высота : 576 пикселей
Соотношение сторон : 4:3
Режим частоты кадров : Постоянный
Частота кадров : 25,000 кадров/сек
Стандарт вещания : PAL
Цветовое пространство : YUV
Субдискретизация насыщенности : 4:2:0
Битовая глубина : 8 бит
Тип развёртки : Чересстрочная
Порядок развёртки : Верхнее поле первое
Метод сжатия : С потерями
Бит/(Пиксели*Кадры) : 0.579
Временной код первого кадра : 01:01:21:00
Оригинал временного кода : Group of pictures header
GOP, открыто/закрыто : Закрыто
Размер потока : 3,75 Гбайт (89%)
Язык : English
Default : Нет
Forced : Нет

Аудио #1
Идентификатор : 2
Формат : AC-3
Формат/Информация : Audio Coding 3
Коммерческое название : Dolby Digital
Идентификатор кодека : A_AC3
Продолжительность : 1 ч. 29 м.
Вид битрейта : Постоянный
Битрейт : 192 Кбит/сек
Каналы : 2 канала
ChannelLayout : L R
Частота : 48,0 КГц
Частота кадров : 31,250 кадров/сек (1536 SPF)
Битовая глубина : 16 бит
Метод сжатия : С потерями
Размер потока : 123 Мбайт (3%)
Заголовок : DVO (НТВ)
Язык : Russian
ServiceKind/String : Complete Main
Default : Да
Forced : Нет

Аудио #2
Идентификатор : 3
Формат : AC-3
Формат/Информация : Audio Coding 3
Коммерческое название : Dolby Digital
Идентификатор кодека : A_AC3
Продолжительность : 1 ч. 29 м.
Вид битрейта : Постоянный
Битрейт : 192 Кбит/сек
Каналы : 2 канала
ChannelLayout : L R
Частота : 48,0 КГц
Частота кадров : 31,250 кадров/сек (1536 SPF)
Битовая глубина : 16 бит
Метод сжатия : С потерями
Размер потока : 123 Мбайт (3%)
Заголовок : MVO (РТР)
Язык : Russian
ServiceKind/String : Complete Main
Default : Нет
Forced : Нет

Аудио #3
Идентификатор : 4
Формат : MPEG Audio
Версия формата : Version 1
Профиль формата : Layer 3
Идентификатор кодека : A_MPEG/L3
Идентификатор кодека/Подсказка : MP3
Продолжительность : 1 ч. 29 м.
Вид битрейта : Постоянный
Битрейт : 128 Кбит/сек
Каналы : 2 канала
Частота : 48,0 КГц
Частота кадров : 41,667 кадра/сек (1152 SPF)
Метод сжатия : С потерями
Размер потока : 81,8 Мбайт (2%)
Заголовок : AVO (Ю. Сербин)
Библиотека кодирования : LAME3.99r
Настройки программы : -m s -V 4 -q 2 -lowpass 17 -b 128
Язык : Russian
Default : Нет
Forced : Нет

Аудио #4
Идентификатор : 5
Формат : AC-3
Формат/Информация : Audio Coding 3
Коммерческое название : Dolby Digital
Идентификатор кодека : A_AC3
Продолжительность : 1 ч. 29 м.
Вид битрейта : Постоянный
Битрейт : 224 Кбит/сек
Каналы : 2 канала
ChannelLayout : L R
Частота : 48,0 КГц
Частота кадров : 31,250 кадров/сек (1536 SPF)
Битовая глубина : 16 бит
Метод сжатия : С потерями
Размер потока : 143 Мбайт (3%)
Язык : English
ServiceKind/String : Complete Main
Default : Нет
Forced : Нет

Текст
Идентификатор : 6
Формат : VobSub
Режим смешивания : zlib
Идентификатор кодека : S_VOBSUB
Идентификатор кодека/Информация : Picture based subtitle format used on DVDs
Продолжительность : 1 ч. 25 м.
Битрейт : 3781 бит/сек
ElementCount : 555
Размер потока : 2,32 Мбайт (0%)
Язык : Dutch
Default : Нет
Forced : Нет

Меню
00:00:00.080 : en:Chapter 01
00:05:44.480 : en:Chapter 02
00:09:53.480 : en:Chapter 03
00:16:26.480 : en:Chapter 04
00:22:13.880 : en:Chapter 05
00:28:22.880 : en:Chapter 06
00:33:40.280 : en:Chapter 07
00:42:29.400 : en:Chapter 08
00:47:15.720 : en:Chapter 09
00:50:58.320 : en:Chapter 10
00:56:45.720 : en:Chapter 11
01:02:21.720 : en:Chapter 12
01:08:39.120 : en:Chapter 13
01:12:07.920 : en:Chapter 14
01:19:28.320 : en:Chapter 15
01:26:27.120 : en:Chapter 16
скриншот  скриншот  скриншот  
pb.wtf



Скачать Боевые роботы через торрент https://d.radikal.ru/d09/1907/36/128d9ad52203.jpg Скачать фильм Боевые роботы через торрент бесплантно в хорошем качестве Описание: В результате опустошительной межпланетной войны практически разрушена Земля и соседние планеты. Могущественные победители, воины ... 10 10 6
Торрент: Зарегистрирован [2020-07-19 11:19] · скачан: 22 раз
Статус: √ проверено
Размер: 4.25 GB
Как cкачать? Как скачать Боевые роботы через торрент | qTorrent



Последний раз редактировалось: killermax2013 (2020-07-19 11:19), всего редактировалось 2 раз(а)

28-11-2019 20:33  

Отключить всю рекламу на сайте

08-07-2019 16:49 Боевые роботы Скачать торрент  

. одно из разочарований моего детстваpb.wtf



19-07-2020 15:43 Боевые роботы Скачать торрент  

maksim13 писал(а):

. одно из разочарований моего детства

...А я бы пересмотрел с удовольствием "Робот Джокс"...pb.wtf
Kkillermax2013 писал(а):

Так а что мешает ? вот смотрите Робот Джокс / Роботы бойцы / Robot Jox



19-07-2020 16:03 Боевые роботы Скачать торрент  

Спасибо!!!pb.wtf



    Дорогой пользователь! Огромная просьба, поблагодарите релизера, оцените раздачу и оставьте свои комментарий, если Вы скачали Боевые роботы через торрент бесплатно! Внесите свою лепту в развитие PiratBit!
    Комментировать посты могут только пользователи прошедшие не сложную регистрацию
    Показать сообщения:    

    Боевые роботы через торрент
    Скачать бесплатно Боевые роботы
    Боевые роботы скачать торрент
    Боевые роботы смотреть онлайн
    Cкачать фильм Боевые роботы бесплатно
    Боевые роботы скачать торрент в хорошем качестве
    Боевые роботы смотреть онлайн бесплатно в хорошем качестве


    Вы не можете начинать темы
    Вы не можете отвечать на сообщения
    Вы не можете редактировать свои сообщения
    Вы не можете удалять свои сообщения
    Вы не можете голосовать в опросах
    Вы не можете прикреплять файлы к сообщениям
    Вы можете скачивать файлы