Всегда рабочее зеркало без VPN и Proxy просто перед .vidak.icu напиши любое слово или цифру, Пример http://dmsi.vidak.icu

MVO

MVO

1 сезон

1

1 сезон

iTunes

1 сезон

13

1 сезон

Deluxe

pack

Рекомендуем

Repack

30

ВАЖНО

RePack

MK11

RePack

jed

RePack

fifa19

RePack

RDR2

RePack

NEED FOR SPEED™ PAYBACK

Кинопоиск HD

6 сезон

 Острые козырьки 6 сезон

Все сериалы

все сериалы на PB.wtf

RePack

FAR CRY 5
  
Magnet ссылка

Мягкие места / Soft Places (Joanna Williams) [1978 г., Classic, Feature, Erotic, DVDRip] pb.wtf

Мягкие места через торрент pb.wtf

Размер: 2.25 GB | Добавлен: 2 года назад | Торрент скачан:254 раза
Смотреть онлайн Мягкие места | Скачать    Ребята, помогите собрать деньги на оплату серверов!!!

20-07-2020 13:59 Мягкие места Скачать торрент  

Мягкие места / Soft Places
Год выпуска: 1978

Страна: США

Жанр: Classic, Feature, Erotic

Продолжительность: 01:13:44

Субтитры: Русские

Режиссер: Joanna Williams

rating

В ролях: Annette Haven, Paul Thomas, John Seeman, Rock Steadie, John Rolling, Elaine Wells, Carl Regal, Carrie Cohen, Brice Taylor, Christine Kelly, Terri Middleton, China Leigh, Chris Cassidy, Miki Star

Описание: Возвращаясь с похорон своего очень богатого и видного мужа, вдова в сопровождении своего семейного адвоката обсуждает необычное завещание, которое оставил ее муж. Для того чтобы в полной мере унаследовать преимущества этого «устного завещания», необходимо, чтобы вдова испытывала все известные сексуальные действия. Через эти возмутительные действия, возможно, ее фригидность исчезнет, и истинно любящая женщина будет развязана. Эксперимент работает! В одном сексуально откровенном акте за другим, вдова выигрывает наследство и ее полную сексуальную свободу!
Качество: DVDRip
Формат: MKV
Видео: 720x544, XVID, 3891 Кбит/сек
Аудио#1: Английский, AC3, 4 ch, 192 Кбит/сек
Аудио#2: Французский, AC3, 4 ch, 192 Кбит/сек
Видео
Идентификатор : 1
Формат : MPEG-4 Visual
Профиль формата : Advanced [email protected]
Настройки формата : BVOP1 / Custom Matrix
Параметр BVOP формата : 1
Параметр QPel формата : Нет
Параметр GMC формата : Без точки перехода
Параметр матрицы формата : Выборочная
Идентификатор кодека : V_MS/VFW/FOURCC / XVID
Идентификатор кодека/Подсказка : XviD
Продолжительность : 1 ч. 13 м.
Битрейт : 3891 Кбит/сек
Ширина : 720 пикселей
Высота : 544 пикселя
Соотношение сторон : 4:3
Режим частоты кадров : Постоянный
Частота кадров : 25,000 кадров/сек
Цветовое пространство : YUV
Субдискретизация насыщенности : 4:2:0
Битовая глубина : 8 бит
Тип развёртки : Прогрессивная
Метод сжатия : С потерями
Бит/(Пиксели*Кадры) : 0.397
Размер потока : 2,00 Гбайт (89%)
Библиотека кодирования : XviD 1.2.0.dev47 (UTC 2006-11-01)
Default : Да
Forced : Нет

Аудио #1
Идентификатор : 2
Формат : AC-3
Формат/Информация : Audio Coding 3
Коммерческое название : Dolby Digital
Идентификатор кодека : A_AC3
Продолжительность : 1 ч. 13 м.
Вид битрейта : Постоянный
Битрейт : 192 Кбит/сек
Каналы : 4 канала
ChannelLayout : L R C Cb
Частота : 48,0 КГц
Частота кадров : 31,250 кадров/сек (1536 SPF)
Метод сжатия : С потерями
Размер потока : 101 Мбайт (4%)
ServiceKind/String : Complete Main
Default : Да
Forced : Нет

Аудио #2
Идентификатор : 3
Формат : AC-3
Формат/Информация : Audio Coding 3
Коммерческое название : Dolby Digital
Идентификатор кодека : A_AC3
Продолжительность : 1 ч. 13 м.
Вид битрейта : Постоянный
Битрейт : 192 Кбит/сек
Каналы : 4 канала
ChannelLayout : L R C Cb
Частота : 48,0 КГц
Частота кадров : 31,250 кадров/сек (1536 SPF)
Метод сжатия : С потерями
Размер потока : 101 Мбайт (4%)
ServiceKind/String : Complete Main
Default : Нет
Forced : Нет

Текст
Идентификатор : 4
Формат : UTF-8
Идентификатор кодека : S_TEXT/UTF8
Идентификатор кодека/Информация : UTF-8 Plain Text
Default : Да
Forced : Нет

скриншот   скриншот   скриншот  

pb.wtf



pack Скачать Мягкие места через торрент https://pic1.kartinco.top/images/12/f2t6o.jpg Скачать, смотреть онлайн Мягкие места бесплантно в хорошем качестве Описание: Возвращаясь с похорон своего очень богатого и видного мужа, вдова в сопровождении своего семейного адвоката обсуждает необычное ... 9.6 10 7
Торрент: Зарегистрирован [2020-07-20 13:59] · скачан: 254 раз
Статус: √ проверено
Размер: 2.25 GB
Как cкачать? Как скачать Мягкие места через торрент | UTorrent

28-11-2019 20:33  

Отключить вcю реклaмy на сайте

    Дорогой пользователь! Огромная просьба, поблагодарите релизера, оцените раздачу и оставьте свои комментарий, если Вы скачали Мягкие места через торрент бесплатно!
    Комментировать посты могут только пользователи прошедшие не сложную регистрацию
    Показать сообщения:    

    Мягкие места через торрент
    Скачать бесплатно Мягкие места
    Мягкие места скачать торрент
    Мягкие места смотреть онлайн
    Cкачать фильм Мягкие места бесплатно
    Мягкие места скачать торрент в хорошем качестве
    Мягкие места смотреть онлайн бесплатно в хорошем качестве


    Вы не можете начинать темы
    Вы не можете отвечать на сообщения
    Вы не можете редактировать свои сообщения
    Вы не можете удалять свои сообщения
    Вы не можете голосовать в опросах
    Вы не можете прикреплять файлы к сообщениям
    Вы можете скачивать файлы