Ссылка на приватное зеркало нашего сайта всего за 1$. Внимание количество ограничено!!!

2 сезон

iTunes

1 сезон

1

2 сезон

2 сезон

iTunes

1 сезон

RePack

30

Ultimate

ВАЖНО

ИГРА 18+

pack

RePack

MK11
pack

Забери бонус

RePack

jed

!!Акция!!

Alien_Rage

RePack

fifa19

RePack

Assassins Creed: Odyssey

RePack

NEED FOR SPEED™ PAYBACK

4 сезон

9 сезон

Бесстыжие 9 сезон

Все сериалы

все сериалы на PB.wtf

RePack

FAR CRY 5
  

Первая корова / First Cow (Келли Райхардт) [2019, драма, WEBRip 720p] [MVO] (HDRezka Studio) pb.wtf

Первая корова через торрент pb.wtf

Размер: 7.32 GB | Добавлен: 4 мес. 11 д. назад | Торрент скачан:56 раз
Скачать  

21-07-2020 13:51 Первая корова Скачать торрент  

Первая корова / First Cow Год выпуска: 2019
Страна: США
Жанр: драма
Продолжительность: 02:02:21
Перевод: Профессиональный (многоголосый закадровый) *HDRezka Studio *
Субтитры: Русские (forced)

Режиссер: Келли Райхардт

В ролях: Джон Магаро, Орион Ли, Рене Обержонуа, Тоби Джонс, Юэн Бремнер, Скотт Шеперд, Гэри Фармер, Лили Гладстоун, Алиа Шокат, Джон Китинг

Описание: Одинокий повар, путешествующий по Западу времён покорения Америки, присоединяется к новому поселению, где знакомится с иммигрантом из Китая. Вместе они организуют бизнес, успех которого зиждется на существовании коровы, которая принадлежит местному богатому землевладельцу.
rating

Качество видео: WEBRip 720p
Формат видео: MKV
Видео: AVC, 960x720, 7 944 kb/s, 23.976 fps
Аудио: 48 kHz, AC3 Dolby Digital, 6 ch, 448 kbps
General
Unique ID : 215154027851144990351784171187995309639 (0xA1DD2892C2F94A2F2180755A686A7647)
Complete name : G:\First.Cow.2019.WEBRip.720p.rus.5.1.HDREZKA.STUDIO.mkv
Format : Matroska
Format version : Version 4
File size : 7.32 GiB
Duration : 2 h 2 min
Overall bit rate mode : Variable
Overall bit rate : 8 563 kb/s
Encoded date : UTC 2020-07-21 00:44:37
Writing application : mkvmerge v28.2.0 ('The Awakening') 64-bit
Writing library : libebml v1.3.6 + libmatroska v1.4.9

Video
ID : 1
Format : AVC
Format/Info : Advanced Video Codec
Format profile : High@L4.1
Format settings : CABAC / 1 Ref Frames
Format settings, CABAC : Yes
Format settings, Reference : 1 frame
Codec ID : V_MPEG4/ISO/AVC
Duration : 2 h 2 min
Bit rate mode : Variable
Bit rate : 7 944 kb/s
Maximum bit rate : 2 000 kb/s
Width : 960 pixels
Height : 720 pixels
Display aspect ratio : 4:3
Frame rate mode : Constant
Frame rate : 23.976 (24000/1001) FPS
Color space : YUV
Chroma subsampling : 4:2:0
Bit depth : 8 bits
Scan type : Progressive
Bits/(Pixel*Frame) : 0.479
Stream size : 6.79 GiB (93%)
Default : Yes
Forced : No
Duration_Source : General_Duration

Audio
ID : 2
Format : AC-3
Format/Info : Audio Coding 3
Commercial name : Dolby Digital
Codec ID : A_AC3
Duration : 2 h 2 min
Bit rate mode : Constant
Bit rate : 448 kb/s
Channel(s) : 6 channels
Channel layout : L R C LFE Ls Rs
Sampling rate : 48.0 kHz
Frame rate : 31.250 FPS (1536 SPF)
Compression mode : Lossy
Stream size : 392 MiB (5%)
Language : Russian
Service kind : Complete Main
Default : Yes
Forced : No
Duration_Source : General_Duration

Text
ID : 3
Format : UTF-8
Codec ID : S_TEXT/UTF8
Codec ID/Info : UTF-8 Plain Text
Language : Russian
Default : No
Forced : No
скриншот   скриншот   скриншот  
pb.wtf



Скачать Первая корова через торрент https://i112.fastpic.ru/big/2020/0721/b6/767c5896b04e5949fb43da7066e93ab6.png Скачать фильм Первая корова через торрент бесплантно в хорошем качестве Описание: Одинокий повар, путешествующий по Западу времён покорения Америки, присоединяется к новому поселению, где знакомится с ... 9 10 5
Торрент: Зарегистрирован [2020-07-21 13:51] · скачан: 56 раз
Статус: √ проверено
Размер: 7.32 GB
Как cкачать? Как скачать Первая корова через торрент | qTorrent

% Раздел Тема Автор DL S | L
Фильмы 2019-2020 [DVDrip, WEB-DLRip, HDrip] (DUB, MVO) [ 2.18 GB ] Первая корова / First Cow [2019 BDRip] MVO [HDRezka Studio] bober100 Скачать
6 | 0

28-11-2019 20:33  

Отключить всю рекламу на сайте

21-07-2020 18:49 Первая корова Скачать торрент  

что с коровой? Чтоб не плакать...pb.wtf



22-07-2020 14:52 Первая корова Скачать торрент  

w.a.s.p. писал(а):

что с коровой? Чтоб не плакать...

pb.wtf



23-07-2020 16:40 Первая корова Скачать торрент  

это надо скачать и посмотреть. отпишусь )pb.wtf



23-07-2020 20:11 Первая корова Скачать торрент  

1. корова впорядке. как обещал фильм досмотрел до конца. это что-то ...из 2 часов больше часа они доили молоко у чужой коровы...это трындец...ну если очень надо заснуть...как вариант.pb.wtf
Kkillermax2013 писал(а):

фильм на Оскар выдвинут



14-09-2020 17:07 Первая корова Скачать торрент  

Скучноватый фильм, 5/10pb.wtf



    Дорогой пользователь! Огромная просьба, поблагодарите релизера, оцените раздачу и оставьте свои комментарий, если Вы скачали Первая корова через торрент бесплатно! Внесите свою лепту в развитие PiratBit!
    Комментировать посты могут только пользователи прошедшие не сложную регистрацию
    Показать сообщения:    

    Первая корова через торрент
    Скачать бесплатно Первая корова
    Первая корова скачать торрент
    Первая корова смотреть онлайн
    Cкачать фильм Первая корова бесплатно
    Первая корова скачать торрент в хорошем качестве
    Первая корова смотреть онлайн бесплатно в хорошем качестве


    Вы не можете начинать темы
    Вы не можете отвечать на сообщения
    Вы не можете редактировать свои сообщения
    Вы не можете удалять свои сообщения
    Вы не можете голосовать в опросах
    Вы не можете прикреплять файлы к сообщениям
    Вы можете скачивать файлы