Всегда рабочее зеркало без VPN и Proxy просто перед .vidak.icu напиши любое слово или цифру, Пример http://l93n.vidak.icu

Лицензия

MVO

1 сезон

1

1 сезон

iTunes

1 сезон

13

1 сезон

Deluxe

pack

Рекомендуем

Repack

30

ВАЖНО

RePack

MK11

RePack

jed

RePack

fifa19

RePack

RDR2

RePack

NEED FOR SPEED™ PAYBACK

Кинопоиск HD

6 сезон

 Острые козырьки 6 сезон

Все сериалы

все сериалы на PB.wtf

RePack

FAR CRY 5
  
Magnet ссылка

Рождённые в Китае / Born In China (Лу Чуань) [2016, Документальный, научно-популярный, BD Remux 1080p] MVO [iTunes] pb.wtf

Рождённые в Китае через торрент pb.wtf

Размер: 18.59 GB | Добавлен: 2 года назад | Торрент скачан:1 раз
Смотреть онлайн Рождённые в Китае | Скачать    Ребята, помогите собрать деньги на оплату серверов!!!

29-07-2020 15:56 Рождённые в Китае Скачать торрент  

Рождённые в Китае | Born In China
Год выпуска: 2016
Страна: Великобритания, Китай, США
Студия: Brian Leith Productions, Chuan Films, Disneynature
Жанр: Документальный, научно-популярный
Продолжительность: 01:19:23
Перевод: Профессиональный (многоголосый) | iTunes
Субтитры: Русские (Forced, Full), английские (Full, SDH)

Режиссер: Лу Чуань

rating

Текст читает: Давид Петросян

Описание: Рассказ о нескольких видах животных, обитающих на территории Китая - пандах, ирбисах, обезьянах, антилопах и журавлях.

Качество: BD Remux 1080p
Формат: MKV

Видео: 1920х1080 (16:9), 23.976 fps, MPEG-4 AVC ~ 29, 3 Мbps avg, 0.590 bit/pixel
Аудио#1: AC3, 48 kHz, 6 ch, ~384.00 kbps avg | русский | iTunes
Аудио#2: DTS-HD MA, 48 kHz, 6 ch, ~3805.00 kbps avg | английский | Оригинал
скриншот  скриншот  скриншот  скриншот  скриншот  

Общее
Уникальный идентификатор: 3106499327678865898845886146855810291 (0x2564A3DF27CF912315716D1ED2BB4F3)
Полное имя: Born.In.China.2016.1080p.BluRay.Remux.mkv
Формат: Matroska
Версия формата: Version 4
Размер файла: 18, 6 Гбайт
Продолжительность: 1 ч. 19 м.
Режим общего битрейта: Переменный
Общий поток: 33, 5 Мбит/сек
Название фильма: Рождённые в Китае / Born In China (2016)
Дата кодирования: UTC 2020-07-29 05:22:00
Программа кодирования: mkvmerge v47.0.0 ('Black Flag') 64-bit
Библиотека кодирования: libebml v1.3.10 + libmatroska v1.5.2
Обложка: Yes
Attachments: cover.jpg

Видео
Идентификатор: 1
Формат: AVC
Формат/Информация: Advanced Video Codec
Профиль формата: [email protected]
Настройки формата: CABAC / 4 Ref Frames
Параметр CABAC формата: Да
Параметр RefFrames формата: 4 кадра
Идентификатор кодека: V_MPEG4/ISO/AVC
Продолжительность: 1 ч. 19 м.
Вид битрейта: Переменный
Битрейт: 29, 3 Мбит/сек
Максимальный битрейт: 32, 0 Мбит/сек
Ширина: 1 920 пикселей
Высота: 1 080 пикселей
Соотношение сторон: 16:9
Режим частоты кадров: Постоянный
Частота кадров: 23, 976 (24000/1001) кадра/сек
Цветовое пространство: YUV
Субдискретизация насыщенности: 4:2:0
Битовая глубина: 8 бит
Тип развёртки: Прогрессивная
Бит/(Пиксели*Кадры): 0.590
Размер потока: 16, 3 Гбайт (87%)
Default: Да
Forced: Нет

Аудио #1
Идентификатор: 2
Формат: AC-3
Формат/Информация: Audio Coding 3
Коммерческое название: Dolby Digital
Идентификатор кодека: A_AC3
Продолжительность: 1 ч. 19 м.
Вид битрейта: Постоянный
Битрейт: 384 Кбит/сек
Каналы: 6 каналов
Channel layout: L R C LFE Ls Rs
Частота: 48, 0 КГц
Частота кадров: 31, 250 кадров/сек (1536 SPF)
Метод сжатия: С потерями
Размер потока: 218 Мбайт (1%)
Заголовок: iTunes
Язык: Russian
Service kind: Complete Main
Default: Да
Forced: Нет

Аудио #2
Идентификатор: 3
Формат: DTS XLL
Формат/Информация: Digital Theater Systems
Коммерческое название: DTS-HD Master Audio
Идентификатор кодека: A_DTS
Продолжительность: 1 ч. 19 м.
Вид битрейта: Переменный
Битрейт: 3 805 Кбит/сек
Каналы: 6 каналов
Channel layout: C L R Ls Rs LFE
Частота: 48, 0 КГц
Частота кадров: 93, 750 кадра/сек (512 SPF)
Битовая глубина: 24 бит
Метод сжатия: Без потерь
Размер потока: 2, 11 Гбайт (11%)
Язык: English
Default: Нет
Forced: Нет

Текст #1
Идентификатор: 4
Формат: UTF-8
Идентификатор кодека: S_TEXT/UTF8
Идентификатор кодека/Информация: UTF-8 Plain Text
Продолжительность: 50 м. 11 с.
Битрейт: 0 бит/сек
Count of elements: 5
Размер потока: 60, 0 байт (0%)
Заголовок: Forced
Язык: Russian
Default: Да
Forced: Да

Текст #2
Идентификатор: 5
Формат: UTF-8
Идентификатор кодека: S_TEXT/UTF8
Идентификатор кодека/Информация: UTF-8 Plain Text
Продолжительность: 1 ч. 14 м.
Битрейт: 73 бит/сек
Count of elements: 626
Размер потока: 39, 8 Кбайт (0%)
Заголовок: Full
Язык: Russian
Default: Нет
Forced: Нет

Текст #3
Идентификатор: 6
Формат: UTF-8
Идентификатор кодека: S_TEXT/UTF8
Идентификатор кодека/Информация: UTF-8 Plain Text
Продолжительность: 1 ч. 14 м.
Битрейт: 40 бит/сек
Count of elements: 636
Размер потока: 22, 2 Кбайт (0%)
Язык: English
Default: Нет
Forced: Нет

Текст #4
Идентификатор: 7
Формат: UTF-8
Идентификатор кодека: S_TEXT/UTF8
Идентификатор кодека/Информация: UTF-8 Plain Text
Продолжительность: 1 ч. 15 м.
Битрейт: 44 бит/сек
Count of elements: 818
Размер потока: 24, 9 Кбайт (0%)
Язык: English
Default: Нет
Forced: Нет

Меню
00:00:00.000: en:00:00:00.000
00:02:39.159: en:00:02:39.159
00:07:52.847: en:00:07:52.847
00:10:37.929: en:00:10:37.929
00:12:32.710: en:00:12:32.710
00:13:50.496: en:00:13:50.496
00:17:06.525: en:00:17:06.525
00:21:09.894: en:00:21:09.894
00:24:08.906: en:00:24:08.906
00:30:18.358: en:00:30:18.358
00:34:25.730: en:00:34:25.730
00:38:23.801: en:00:38:23.801
00:40:32.805: en:00:40:32.805
00:43:01.913: en:00:43:01.913
00:49:54.408: en:00:49:54.408
00:53:39.842: en:00:53:39.842
01:02:19.361: en:01:02:19.361
01:07:02.852: en:01:07:02.852
01:11:43.299: en:01:11:43.299

pb.wtf



Скачать Рождённые в Китае через торрент https://i112.fastpic.ru/big/2020/0729/91/b9cb8479d45ca330bc4136caaf05c591.jpg Скачать, смотреть онлайн Рождённые в Китае бесплантно в хорошем качестве Описание: Рассказ о нескольких видах животных, обитающих на территории Китая - пандах, ирбисах, обезьянах, антилопах и ... 10 10 3
Торрент: Зарегистрирован [2020-07-29 15:56] · скачан: 1 раз
Статус: √ проверено
Размер: 18.59 GB
Как cкачать? Как скачать Рождённые в Китае через торрент | UTorrent

% Раздел Тема Автор DL S | L
Научно-популярные фильмы [ 7.43 GB ] Рождённые в Китае / Born In China [2016 Документальный научно-популярный BDRip 1080p] MVO bober100 Скачать
1 | 0
Научно-популярные фильмы [ 1.46 GB ] Рождённые в Китае / Born In China [2016 Документальный научно-популярный BDRip] MVO bober100 Скачать
1 | 0

28-11-2019 20:33  

Отключить вcю реклaмy на сайте

    Дорогой пользователь! Огромная просьба, поблагодарите релизера, оцените раздачу и оставьте свои комментарий, если Вы скачали Рождённые в Китае через торрент бесплатно!
    Комментировать посты могут только пользователи прошедшие не сложную регистрацию
    Показать сообщения:    

    Рождённые в Китае через торрент
    Скачать бесплатно Рождённые в Китае
    Рождённые в Китае скачать торрент
    Рождённые в Китае смотреть онлайн
    Cкачать фильм Рождённые в Китае бесплатно
    Рождённые в Китае скачать торрент в хорошем качестве
    Рождённые в Китае смотреть онлайн бесплатно в хорошем качестве


    Вы не можете начинать темы
    Вы не можете отвечать на сообщения
    Вы не можете редактировать свои сообщения
    Вы не можете удалять свои сообщения
    Вы не можете голосовать в опросах
    Вы не можете прикреплять файлы к сообщениям
    Вы можете скачивать файлы