Всегда рабочее зеркало без VPN и Proxy просто перед .vidak.icu напиши любое слово или цифру, Пример http://a9xa.vidak.icu

MVO

2 сезон

1 сезон

1

1 сезон

iTunes

2 сезон

13

1 сезон

Распродажа

pack

Рекомендуем

Пиратка

30

ВАЖНО

RePack

MK11

RePack

jed

RePack

fifa19

RePack

RDR2

RePack

NEED FOR SPEED™ PAYBACK

Кинопоиск HD

6 сезон

 Острые козырьки 6 сезон

Все сериалы

все сериалы на PB.wtf

RePack

FAR CRY 5

Anonymous, нам критически не хватает 5601 руб. на оплату серверов и переферии за Апрель, помоги нам пожалуйста, вся надежда только на тебя. В благодарность мы отключим тебе всю рекламу на сайте!

×
  
Magnet ссылка

Перевёртыш / Skin Walker (Кристиан Ньюман) [2019, Ужасы, триллер, WEB-DL 1080p] AVO [А.Важенин [BadBajo] pb.wtf

Перевёртыш через торрент pb.wtf

Размер: 3.27 GB | Добавлен: 1 год 9 мес. назад | Торрент скачан:55 раз
Смотреть онлайн Перевёртыш | Скачать    Ребята, помогите собрать деньги на оплату серверов!!!

04-08-2020 18:36 Перевёртыш Скачать торрент  

Перевёртыш | Skin Walker
Год выпуска: 2019
Страна: Люксембург, Бельгия
Студия: Calach Films, Caviar Films
Жанр: Ужасы, триллер
Продолжительность: 01:27:11
Перевод: Авторский (одноголосый) |
Субтитры: Английские (отключаемые)

Режиссер: Кристиан Ньюман

rating


В ролях: Удо Кир, Джефферсон Холл, Эмбер Андерсон, Софи Мусель, Беранжер МакНис, Сара Ламеш, Люк Шилтц, Люк Фейт, Эрик Жигу, Марья-Леена Юнкер

Описание: У Реджины было не самое радужное детство, и, сбежав от родственников подальше, она пытается наладить спокойную и безопасную жизнь. Но этим мечтам не суждено сбыться, когда приходит известие, что бабушка Реджины стала жертвой жуткого убийства. Теперь девушке придётся вернуться в родную деревню и разузнать леденящие душу секреты собственной семьи.

Качество: WEB-DL 1080p
Формат: MKV

Видео: 1920x816, ~4 602 Kbps, 23.976 (24000/1001) FPS
Аудио#1: Русский: AC3, 6 ch, 384 Kbps (BadBajo)
Аудио#2: Английский: AC3, 6 ch, 384 Kbps
скриншот  скриншот  скриншот  скриншот  скриншот  

Общее
Уникальный идентификатор : 235180813521606599546598050243767619776 (0xB0EE2D571FD1EBB3CF0CA6CAA342D0C0)
Полное имя : C:\Skin.Walker.2020.1080p.WEB-DL_rus_BadBajo.mkv
Формат : Matroska
Версия формата : Version 4
Размер файла : 3,27 Гбайт
Продолжительность : 1 ч. 27 м.
Общий поток : 5372 Кбит/сек
Название фильма : Skin.Walker.2020.1080p.WEB-DL_rus_BadBajo
Дата кодирования : UTC 2020-08-04 12:37:08
Программа кодирования : mkvmerge v42.0.0 ('Overtime') 64-bit
Библиотека кодирования : libebml v1.3.10 + libmatroska v1.5.2
Обложка : Yes
Attachments : cover.jpg / small_cover.jpg

Видео
Идентификатор : 1
Формат : AVC
Формат/Информация : Advanced Video Codec
Профиль формата : High@L4
Настройки формата : CABAC / 5 Ref Frames
Параметр CABAC формата : Да
Параметр RefFrames формата : 5 кадров
Идентификатор кодека : V_MPEG4/ISO/AVC
Продолжительность : 1 ч. 27 м.
Битрейт : 4602 Кбит/сек
Ширина : 1920 пикселей
Высота : 816 пикселей
Соотношение сторон : 2,35:1
Режим частоты кадров : Постоянный
Частота кадров : 23,976 (24000/1001) кадра/сек
Цветовое пространство : YUV
Субдискретизация насыщенности : 4:2:0
Битовая глубина : 8 бит
Тип развёртки : Прогрессивная
Бит/(Пиксели*Кадры) : 0.120
Размер потока : 2,74 Гбайт (84%)
Язык : English
Default : Да
Forced : Нет
Цветовой диапазон : Limited
Основные цвета : BT.709
Характеристики трансфера : BT.709
Коэффициенты матрицы : BT.709

Аудио #1
Идентификатор : 2
Формат : AC-3
Формат/Информация : Audio Coding 3
Коммерческое название : Dolby Digital
Идентификатор кодека : A_AC3
Продолжительность : 1 ч. 27 м.
Вид битрейта : Постоянный
Битрейт : 384 Кбит/сек
Каналы : 6 каналов
ChannelLayout : L R C LFE Ls Rs
Частота : 48,0 КГц
Частота кадров : 31,250 кадров/сек (1536 SPF)
Битовая глубина : 16 бит
Метод сжатия : С потерями
Задержка видео : -42 мс.
Размер потока : 239 Мбайт (7%)
Заголовок : Skin.Walker.2020.1080p.WEB-DL_rus_BadBajo
Язык : Russian
ServiceKind/String : Complete Main
Default : Да
Forced : Да

Аудио #2
Идентификатор : 3
Формат : AC-3
Формат/Информация : Audio Coding 3
Коммерческое название : Dolby Digital
Идентификатор кодека : A_AC3
Продолжительность : 1 ч. 27 м.
Вид битрейта : Постоянный
Битрейт : 384 Кбит/сек
Каналы : 6 каналов
ChannelLayout : L R C LFE Ls Rs
Частота : 48,0 КГц
Частота кадров : 31,250 кадров/сек (1536 SPF)
Битовая глубина : 16 бит
Метод сжатия : С потерями
Задержка видео : -42 мс.
Размер потока : 239 Мбайт (7%)
Заголовок : Skin.Walker.2020.1080p.WEB-DL_eng
Язык : English
ServiceKind/String : Complete Main
Default : Нет
Forced : Нет

Текст
Идентификатор : 4
Формат : UTF-8
Идентификатор кодека : S_TEXT/UTF8
Идентификатор кодека/Информация : UTF-8 Plain Text
Заголовок : Skin.Walker.2020.1080p.WEB-DL_eng
Язык : English
Default : Нет
Forced : Нет

Меню
00:00:00.000 : en:1`
00:29:40.000 : en:2
01:00:08.000 : en:3

pb.wtf



Скачать Перевёртыш через торрент https://c.radikal.ru/c14/2008/75/dcfc48a8c888.jpg Скачать, смотреть онлайн Перевёртыш бесплантно в хорошем качестве Описание: У Реджины было не самое радужное детство, и, сбежав от родственников подальше, она пытается наладить спокойную и безопасную ... 9.6 10 7
Торрент: Зарегистрирован [2020-08-04 18:36] · скачан: 55 раз
Статус: √ проверено
Размер: 3.27 GB
Как cкачать? Как скачать Перевёртыш через торрент | UTorrent

% Раздел Тема Автор DL S | L
Фильмы с авторской озвучкой [ 746 MB ] Перевёртыш / Skin Walker [2019 WEB-DLRip-AVC] [AVO] [BadBajo] от wolf1245 & MediaBit Lithuania Скачать
1 | 0

28-11-2019 20:33  

Отключить всю рекламу на сайте

    Дорогой пользователь! Огромная просьба, поблагодарите релизера, оцените раздачу и оставьте свои комментарий, если Вы скачали Перевёртыш через торрент бесплатно!
    Комментировать посты могут только пользователи прошедшие не сложную регистрацию
    Показать сообщения:    

    Перевёртыш через торрент
    Скачать бесплатно Перевёртыш
    Перевёртыш скачать торрент
    Перевёртыш смотреть онлайн
    Cкачать фильм Перевёртыш бесплатно
    Перевёртыш скачать торрент в хорошем качестве
    Перевёртыш смотреть онлайн бесплатно в хорошем качестве


    Вы не можете начинать темы
    Вы не можете отвечать на сообщения
    Вы не можете редактировать свои сообщения
    Вы не можете удалять свои сообщения
    Вы не можете голосовать в опросах
    Вы не можете прикреплять файлы к сообщениям
    Вы можете скачивать файлы