Ссылка на приватное зеркало нашего сайта всего за 1$. Внимание количество ограничено!!!

2 сезон

iTunes

1 сезон

1

iTunes

iTunes

iTunes

1 сезон

RePack

30

ИГРА 18+

pack

ВАЖНО

!!Акция!!

Alien_RageХит недели

RePack

MK11
pack

Забери бонус

RePack

jed

!!Акция!!

Alien_Rage

RePack

fifa19

RePack

Assassins Creed: Odyssey

RePack

NEED FOR SPEED™ PAYBACK

4 сезон

9 сезон

Бесстыжие 9 сезон

Все сериалы

все сериалы на PB.wtf

RePack

FAR CRY 5
  

Безумный гонщик / Blood Car (Алекс Орр) [2007, ужасы, комедия, BDRip 1080p by msltel] MVO, AVO pb.wtf

Безумный гонщик через торрент pb.wtf

Размер: 10.26 GB | Добавлен: 4 года назад | Торрент скачан:25 раз
Скачать  

05-10-2016 11:05 Безумный гонщик Скачать торрент  

Название: Безумный гонщик
Оригинальное название: Blood Car
Год выпуска: 2007
Страна: США
Жанр: ужасы, комедия
Продолжительность: 01:16:18
Перевод: профессиональный многоголосый, авторский

Режиссёр: Алекс Орр

В ролях: Майк Бруне, Анна Кламски, Кэти Роулетт, Мэтт Хатчинсон, Марла Малкольм, Мистер Молт, Мэттью Стэнтон, Билл Зиманский, Ауми Гиллебо, Винс Канлас

Описание: Недалёкое будущее. Планета на грани энергетического голода. Весь учёный мир занят только одной проблемой — разработкой альтернативного вида энергии. Молодой гений Арчи тоже одержим этой идеей и мечтает создать «топливо века». Но все его попытки ни к чему не приводят до тех пор, пока в его лабораторные материалы не попадает несколько капель человеческой крови. Результат превосходит все ожидания! Адская смесь оказывается лучше любого горючего. Решив испытать изобретение, он наполняет им бак автомобиля и отправляется на сумасшедший тест-драйв по городским дорогам...



Качество: BDRip 1080p Сравнение с исходником
Формат: MKV
Видео: MPEG-4 AVC, 17.4 Mбит/с, 1920x1080, 23,976 кадра/с
Аудио 1: русский, AC3, 192 kbps, 2 ch, 48 kHz [профессиональный многоголосый, R5]
Аудио 2: русский, AC3, 192 kbps, 2 ch, 48 kHz [авторский, Антон Дольский]
Аудио 3: английский, DTS, 1509 kbps, 6 ch, 48 kHz [оригинал]
Субтитры 1: русские
Субтитры 2: французские
Общее
Уникальный идентификатор : 200638059978821844367649770989032413224 (0x96F17C19DDECF5C6BDBC6258EF7D9828)
Полное имя : D:\Video\Безумный гонщик.2007 BDRip.1080p.mkv
Формат : Matroska
Версия формата : Version 4 / Version 2
Размер файла : 10,3 Гбайт
Продолжительность : 1 ч. 16 м.
Общий поток : 19,3 Мбит/сек
Дата кодирования : UTC 2016-10-05 02:25:26
Программа кодирования : mkvmerge v8.2.0 ('World of Adventure') 64bit
Библиотека кодирования : libebml v1.3.1 + libmatroska v1.4.2

Видео
Идентификатор : 1
Формат : AVC
Формат/Информация : Advanced Video Codec
Профиль формата : High@L4.1
Параметр CABAC формата : Да
Параметр ReFrames формата : 4 кадра
Идентификатор кодека : V_MPEG4/ISO/AVC
Продолжительность : 1 ч. 16 м.
Битрейт : 17,4 Мбит/сек
Ширина : 1920 пикселей
Высота : 1080 пикселей
Соотношение сторон : 16:9
Режим частоты кадров : Постоянный
Частота кадров : 23,976 (24000/1001) кадра/сек
Цветовое пространство : YUV
Субдискретизация насыщенности : 4:2:0
Битовая глубина : 8 бит
Тип развёртки : Прогрессивная
Бит/(Пиксели*Кадры) : 0.349
Размер потока : 9,25 Гбайт (90%)
Библиотека кодирования : x264 core 146 r2538 121396c
Настройки программы : cabac=1 / ref=4 / deblock=1:-1:-1 / analyse=0x3:0x113 / me=umh / subme=10 / psy=1 / psy_rd=1.00:0.15 / mixed_ref=1 / me_range=32 / chroma_me=1 / trellis=2 / 8x8dct=1 / cqm=0 / deadzone=21,11 / fast_pskip=1 / chroma_qp_offset=-3 / threads=6 / lookahead_threads=1 / sliced_threads=0 / nr=0 / decimate=1 / interlaced=0 / bluray_compat=0 / constrained_intra=0 / bframes=8 / b_pyramid=2 / b_adapt=2 / b_bias=0 / direct=1 / weightb=1 / open_gop=0 / weightp=2 / keyint=230 / keyint_min=23 / scenecut=40 / intra_refresh=0 / rc_lookahead=40 / rc=crf / mbtree=0 / crf=20.1 / qcomp=0.60 / qpmin=0 / qpmax=69 / qpstep=4 / vbv_maxrate=40000 / vbv_bufsize=50000 / crf_max=0.0 / nal_hrd=none / filler=0 / ip_ratio=1.40 / pb_ratio=1.30 / aq=1:1.00
Язык : English
Default : Да
Forced : Нет

Аудио #1
Идентификатор : 2
Формат : AC-3
Формат/Информация : Audio Coding 3
Расширение режима : CM (complete main)
Параметр Endianness формата : Big
Идентификатор кодека : A_AC3
Продолжительность : 1 ч. 16 м.
Вид битрейта : Постоянный
Битрейт : 192 Кбит/сек
Каналы : 2 канала
Расположение каналов : Front: L R
Частота : 48,0 КГц
Частота кадров : 31,250 кадров/сек (1536 spf)
Метод сжатия : С потерями
Размер потока : 105 Мбайт (1%)
Заголовок : MVO (R5)
Язык : Russian
Default : Да
Forced : Нет

Аудио #2
Идентификатор : 3
Формат : AC-3
Формат/Информация : Audio Coding 3
Расширение режима : CM (complete main)
Параметр Endianness формата : Big
Идентификатор кодека : A_AC3
Продолжительность : 1 ч. 16 м.
Вид битрейта : Постоянный
Битрейт : 192 Кбит/сек
Каналы : 2 канала
Расположение каналов : Front: L R
Частота : 48,0 КГц
Частота кадров : 31,250 кадров/сек (1536 spf)
Метод сжатия : С потерями
Размер потока : 105 Мбайт (1%)
Заголовок : AVO (Антон Дольский)
Язык : Russian
Default : Нет
Forced : Нет

Аудио #3
Идентификатор : 4
Формат : DTS
Формат/Информация : Digital Theater Systems
Режим : 16
Параметр Endianness формата : Big
Идентификатор кодека : A_DTS
Продолжительность : 1 ч. 16 м.
Вид битрейта : Постоянный
Битрейт : 1509 Кбит/сек
Каналы : 6 каналов
Расположение каналов : Front: L C R, Side: L R, LFE
Частота : 48,0 КГц
Частота кадров : 93,750 кадра/сек (512 spf)
Битовая глубина : 24 бит
Метод сжатия : С потерями
Размер потока : 824 Мбайт (8%)
Заголовок : original
Язык : English
Default : Нет
Forced : Нет

Текст #1
Идентификатор : 5
Формат : UTF-8
Идентификатор кодека : S_TEXT/UTF8
Идентификатор кодека/Информация : UTF-8 Plain Text
Продолжительность : 1 ч. 13 м.
Битрейт : 73 бит/сек
Count of elements : 614
Размер потока : 39,9 Кбайт (0%)
Заголовок : русские
Язык : Russian
Default : Нет
Forced : Нет

Текст #2
Идентификатор : 6
Формат : UTF-8
Идентификатор кодека : S_TEXT/UTF8
Идентификатор кодека/Информация : UTF-8 Plain Text
Продолжительность : 1 ч. 13 м.
Битрейт : 36 бит/сек
Count of elements : 689
Размер потока : 19,8 Кбайт (0%)
Заголовок : французские
Язык : French
Default : Нет
Forced : Нет
pb.wtf



Скачать Безумный гонщик через торрент http://s017.radikal.ru/i400/1610/7c/c865cfbb6f6b.jpg Скачать фильм Безумный гонщик через торрент бесплантно в хорошем качестве Описание: Недалёкое будущее. Планета на грани энергетического голода. Весь учёный мир занят только одной проблемой — разработкой ... 9.8 10 4
Info! Золотая раздача, скачанное не засчитывается.
Торрент: Зарегистрирован [2016-10-05 11:05] · скачан: 25 раз
Статус: √ проверено
Размер: 10.26 GB
Как cкачать? Как скачать Безумный гонщик через торрент | qTorrent

% Раздел Тема Автор DL S | L
Фильмы [HD 720p, 1080p] (Хороший звук DUB, MVO) [ 3.47 GB ] Безумный гонщик / Blood Car [2007 BDRip 720p by msltel] MVO AVO msltel Скачать
1 | 0

28-11-2019 20:33  

Отключить всю рекламу на сайте

05-10-2016 18:46 Безумный гонщик Скачать торрент  

Ну ребята это уж слишком. Я по своей наивности думал, что черные мутанты-вампиры-зомби это муть 80 левела, но ошибся. Процитирую: "Адская смесь оказывается лучше любого горючего. Решив испытать изобретение," и т.д. %;№":!!! Как из КРОВИ можно сделать бензин??????????? Что эти придурки курят там? Поделились бы! Ну и вот. Я бы продолжил так: ", он берет бензопилу, электролобзик, болгарку и пару подруг и объявляет геноцид (или холокост, кому как нравится) своим соседям по городу. надоив с них 2 цистерны кровушки и разбавив ее диметилхлоридбелзолгидратфосфатом собственного производства, он заправляет полученную жижу в свой мегакрутой DAEWOO Nexia. Прицепив цистерну сзади своей мегакрутой тачилы, он аццки зажигает на всех дорогах Америки и Европы, берет все призы в формуле-1, маслкар-рейсинге, гонке Париж-Дакар, дайтоне и пр. подруги офигев от такой прыти, набрасываются на него и высасывают все до капли. прямо на капоте машины, на стадионе. студия бразерс приглашает всех троих на съемки мегакрутого порнофильма (жанр: гонзо-буккаке-аналфистинг-гангбанг-лесбишоу), и выплачивает им задаток в размере 500 лярдов бакинских. они получают 100500 порноОскаров, просят политубежище в России, получают российские паспорта, покупают Урюпинск и живут себе припеваючи. Тут и сказке конец, а кто кино посмотрел, тот :%;"№!!!pb.wtf



06-10-2016 03:50 Безумный гонщик Скачать торрент  

То чувство,когда человек не знает что можно регаться на*Кинописке*и оставлять кометы)pb.wtf



01-09-2020 20:55 Безумный гонщик Скачать торрент  

Дайте сидов ребяткиpb.wtf



    Дорогой пользователь! Огромная просьба, поблагодарите релизера, оцените раздачу и оставьте свои комментарий, если Вы скачали Безумный гонщик через торрент бесплатно! Внесите свою лепту в развитие PiratBit!
    Комментировать посты могут только пользователи прошедшие не сложную регистрацию
    Показать сообщения:    

    Безумный гонщик через торрент
    Скачать бесплатно Безумный гонщик
    Безумный гонщик скачать торрент
    Безумный гонщик смотреть онлайн
    Cкачать фильм Безумный гонщик бесплатно
    Безумный гонщик скачать торрент в хорошем качестве
    Безумный гонщик смотреть онлайн бесплатно в хорошем качестве


    Вы не можете начинать темы
    Вы не можете отвечать на сообщения
    Вы не можете редактировать свои сообщения
    Вы не можете удалять свои сообщения
    Вы не можете голосовать в опросах
    Вы не можете прикреплять файлы к сообщениям
    Вы можете скачивать файлы