Ссылка на приватное зеркало нашего сайта всего за 1$. Внимание количество ограничено!!!

2 сезон

iTunes

1 сезон

1

iTunes

iTunes

iTunes

1 сезон

RePack

30

ИГРА 18+

pack

ВАЖНО

!!Акция!!

Alien_RageХит недели

RePack

MK11
pack

Забери бонус

RePack

jed

!!Акция!!

Alien_Rage

RePack

fifa19

RePack

Assassins Creed: Odyssey

RePack

NEED FOR SPEED™ PAYBACK

4 сезон

9 сезон

Бесстыжие 9 сезон

Все сериалы

все сериалы на PB.wtf

RePack

FAR CRY 5
  

Сделано в Китае / Made in China (Жюльен Авраам) [2019, Драма, комедия, BDRip 1080p] MVO [iTunes] pb.wtf

Сделано в Китае через торрент pb.wtf

Раздают: 3 [ 0 KB/s ]
Размер: 6.58 GB | Добавлен: 1 мес. 16 д. назад | Торрент скачан:73 раза
Скачать  

04-09-2020 17:39 Сделано в Китае Скачать торрент  

Сделано в Китае | Made in China
Год выпуска: 2019
Страна: Франция
Студия: Montauk Films, Ripley Films
Жанр: Драма, комедия
Продолжительность: 01:27:44
Перевод: Профессиональный (многоголосый) | iTunes
Субтитры: French (Forced)

Режиссер: Жюльен Авраам

rating

В ролях: Фредерик Шо, Меди Садун, Жюли Де Бона, Стив Чан, Йин Бинг, Милен Джампаной, Клементин Селарье, Хин Хин Чэн, Абделькадер Огюи, Хэлинг Ли

Описание: После того, как Франсуа поругался с отцом, он не общался со своей китайской семьей целых десять лет. С тех пор он не любил вопросы о своем азиатском происхождении и даже врал, что он приемный. Но когда он узнал, что скоро сам станет родителем, решил вернуться к корням.

Качество: BDRip 1080p
Формат: MKV

Видео: MPEG-4 AVC, 9899 Kb/s, 1920x800, 24 FPS
Аудио#1 Russian: 48 kHz, Audio Coding 3, 2/0 (L, R) ch, ~192 Kbps | iTunes
Аудио#2 French: 48 kHz, AC3 Dolby Digital, 3/2 (L, C, R, l, r) + LFE ch, ~640 Kbps | Original
скриншот  скриншот  скриншот  скриншот  

Complete name: Sdelano.v.Kitae.2019.BDRip.1080p.ELEKTRI4KA.UNIONGANG.mkv
Format: Matroska
Format version: Version 4 / Version 2
File size: 6.58 GiB
Duration: 1 h 27 min
Overall bit rate: 10.7 Mb/s
Movie name: .ELEKTRI4KA.UNIONGANG.
Encoded date: UTC 2020-09-04 13:21:09
Writing application: mkvmerge v8.3.0 ('Over the Horizon') 64bit
Writing library: libebml v1.3.1 + libmatroska v1.4.2

Video
ID: 1
Format: AVC
Format/Info: Advanced Video Codec
Format profile: High@L4.1
Format settings, CABAC: Yes
Format settings, Reference frames: 4 frames
Codec ID: V_MPEG4/ISO/AVC
Duration: 1 h 27 min
Bit rate: 9 899 kb/s
Width: 1 920 pixels
Height: 800 pixels
Display aspect ratio: 2.40:1
Frame rate mode: Constant
Frame rate: 24.000 FPS
Color space: YUV
Chroma subsampling: 4:2:0
Bit depth: 8 bits
Scan type: Progressive
Bits/(Pixel*Frame): 0.269
Stream size: 6.07 GiB (92%)
Writing library: x264 core 157 r2935 545de2f
Encoding settings: cabac=1 / ref=3 / deblock=1:0:0 / analyse=0x3:0x113 / me=hex / subme=7 / psy=1 / psy_rd=1.00:0.00 / mixed_ref=1 / me_range=16 / chroma_me=1 / trellis=1 / 8x8dct=1 / cqm=0 / deadzone=21, 11 / fast_pskip=1 / chroma_qp_offset=-2 / threads=25 / lookahead_threads=4 / sliced_threads=0 / nr=0 / decimate=1 / interlaced=0 / bluray_compat=0 / constrained_intra=0 / bframes=3 / b_pyramid=2 / b_adapt=1 / b_bias=0 / direct=1 / weightb=1 / open_gop=0 / weightp=2 / keyint=240 / keyint_min=24 / scenecut=40 / intra_refresh=0 / rc_lookahead=40 / rc=2pass / mbtree=1 / bitrate=9899 / ratetol=1.0 / qcomp=0.60 / qpmin=0 / qpmax=69 / qpstep=4 / cplxblur=20.0 / qblur=0.5 / vbv_maxrate=62500 / vbv_bufsize=78125 / nal_hrd=none / filler=0 / ip_ratio=1.40 / aq=1:1.00
Language: French
Default: Yes
Forced: No

Audio #1
ID: 2
Format: AC-3
Format/Info: Audio Coding 3
Mode extension: CM (complete main)
Format settings, Endianness: Big
Codec ID: A_AC3
Duration: 1 h 27 min
Bit rate mode: Constant
Bit rate: 192 kb/s
Channel(s): 2 channels
Channel positions: Front: L R
Sampling rate: 48.0 kHz
Frame rate: 31.250 FPS (1536 spf)
Bit depth: 16 bits
Compression mode: Lossy
Stream size: 120 MiB (2%)
Title: ITunes
Language: Russian
Default: Yes
Forced: No

Audio #2
ID: 3
Format: AC-3
Format/Info: Audio Coding 3
Mode extension: CM (complete main)
Format settings, Endianness: Big
Codec ID: A_AC3
Duration: 1 h 27 min
Bit rate mode: Constant
Bit rate: 640 kb/s
Channel(s): 6 channels
Channel positions: Front: L C R, Side: L R, LFE
Sampling rate: 48.0 kHz
Frame rate: 31.250 FPS (1536 spf)
Bit depth: 16 bits
Compression mode: Lossy
Stream size: 402 MiB (6%)
Language: French
Default: No
Forced: No

Text
ID: 4
Format: UTF-8
Codec ID: S_TEXT/UTF8
Codec ID/Info: UTF-8 Plain Text
Duration: 1 h 8 min
Bit rate: 4 b/s
Count of elements: 83
Stream size: 2.48 KiB (0%)
Title: Forced
Language: French
Default: No
Forced: No

Menu
00:00:00.000: :Chapter 01
00:07:38.083: :Chapter 02
00:15:01.792: :Chapter 03
00:22:51.708: :Chapter 04
00:29:10.833: :Chapter 05
00:37:55.958: :Chapter 06
00:49:34.583: :Chapter 07
00:54:27.042: :Chapter 08
01:02:20.458: :Chapter 09
01:09:48.417: :Chapter 10
01:16:41.500: :Chapter 11
01:23:44.625: :Chapter 12

pb.wtf



Скачать Сделано в Китае через торрент https://b.radikal.ru/b32/2009/72/4f989a52f8b9.png Скачать фильм Сделано в Китае через торрент бесплантно в хорошем качестве Описание: После того, как Франсуа поругался с отцом, он не общался со своей китайской семьей целых десять лет. С тех пор он не любил ... 10 10 3
Торрент: Зарегистрирован [2020-09-04 17:39] · скачан: 73 раз
Статус: T временная
Размер: 6.58 GB
Как cкачать? Как скачать Сделано в Китае через торрент | qTorrent

% Раздел Тема Автор DL S | L
Фильмы 2019-2020 [DVDrip, WEB-DLRip, HDrip] (DUB, MVO) [ 1.3 GB ] Сделано в Китае / Made in China [2019 BDRip] MVO Twi7ter Скачать
13 | 0
Фильмы 2019-2020 [DVDrip, WEB-DLRip, HDrip] (DUB, MVO) [ 1.18 GB ] Сделано в Китае / Made in China [2019 BDRip-AVC] [MVO] от MediaBit Lithuania Скачать
2 | 0
Фильмы (Blu-ray, BD-Remux, HDDVD) [ 19.21 GB ] Сделано в Китае / Made in China [2019 BD Remux 1080p] MVO bober100 Скачать
1 | 0
Фильмы 2019-2020 [DVDrip, WEB-DLRip, HDrip] (DUB, MVO) [ 1.46 GB ] Сделано в Китае / Made in China [2019 BDRip] MVO bober100 Скачать
5 | 0

28-11-2019 20:33  

Отключить всю рекламу на сайте

    Дорогой пользователь! Огромная просьба, поблагодарите релизера, оцените раздачу и оставьте свои комментарий, если Вы скачали Сделано в Китае через торрент бесплатно! Внесите свою лепту в развитие PiratBit!
    Комментировать посты могут только пользователи прошедшие не сложную регистрацию
    Показать сообщения:    

    Сделано в Китае через торрент
    Скачать бесплатно Сделано в Китае
    Сделано в Китае скачать торрент
    Сделано в Китае смотреть онлайн
    Cкачать фильм Сделано в Китае бесплатно
    Сделано в Китае скачать торрент в хорошем качестве
    Сделано в Китае смотреть онлайн бесплатно в хорошем качестве


    Вы не можете начинать темы
    Вы не можете отвечать на сообщения
    Вы не можете редактировать свои сообщения
    Вы не можете удалять свои сообщения
    Вы не можете голосовать в опросах
    Вы не можете прикреплять файлы к сообщениям
    Вы можете скачивать файлы