Ссылка на приватное зеркало нашего сайта всего за 1$. Внимание количество ограничено!!!

2 сезон

iTunes

1 сезон

1

iTunes

iTunes

iTunes

1 сезон

RePack

30

ИГРА 18+

pack

ВАЖНО

!!Акция!!

Alien_RageХит недели

RePack

MK11
pack

Забери бонус

RePack

jed

!!Акция!!

Alien_Rage

RePack

fifa19

RePack

Assassins Creed: Odyssey

RePack

NEED FOR SPEED™ PAYBACK

4 сезон

9 сезон

Бесстыжие 9 сезон

Все сериалы

все сериалы на PB.wtf

RePack

FAR CRY 5
  

Видеорегистратор / Body Cam (Малик Бут) [2020, ужасы, детектив, триллер, WEB-DL 1080p] DUB [iTunes] pb.wtf

Видеорегистратор через торрент pb.wtf

Раздают: 2 [ 0 KB/s ]
Размер: 3.78 GB | Добавлен: 1 мес. 20 д. назад | Торрент скачан:69 раз
Скачать  

05-09-2020 18:24 Видеорегистратор Скачать торрент  

Видеорегистратор | Body Cam
Год выпуска: 2020
Страна: США
Выпущено: Ace Entertainment, Paramount Players
Жанр: ужасы, детектив, триллер
Продолжительность: 01:36:39
Перевод: Дублированный | iTunes
Субтитры: Russian (Full, Forced), Ukrainian (Full), English (Full, SDH)

Режиссер: Малик Бут

rating

В ролях: Мэри Джей Блайдж, Нат Вулф, Дэвид Зайас, Аника Нони Роуз, Дэвид Уоршофски, Йен Касселберри, Филип Форнах, Лара Грайс, Деметриус Гросс, Наима Рамос-Чепмен

Описание: В годовщину смерти подростка от рук полиции один из патрульных полицейских перестает отвечать по рации. Его истерзанное тело находят коллеги, а на записи с видеорегистратора женщина-полицейский Рене Ломито видит, как того подбрасывает вверх неведомая сила. Вскоре происходит убийство нескольких человек, в том числе полицейских, чем-то невидимым, и Рене решает расследовать дело сама.

Качество: WEB-DL 1080p
Формат: MKV

Видео: MPEG-4 AVC, 4559 Kb/s, 1916x800, 23.976 FPS
Аудио#1 Russian: 48 kHz, AC3 Dolby Digital, 3/2 (L, C, R, l, r) + LFE ch, ~384 kbps | iTunes
Аудио#2 English: 48 kHz, Enhanced AC3 Dolby Digital, 3/2 (L, C, R, l, r) + LFE ch, ~640 kbps | Original
скриншот  скриншот  скриншот  скриншот  

Video
ID: 1
Format: AVC
Format/Info: Advanced Video Codec
Format profile: High@L4
Format settings: CABAC / 5 Ref Frames
Format settings, CABAC: Yes
Format settings, Reference: 5 frames
Codec ID: V_MPEG4/ISO/AVC
Duration: 1 h 36 min
Bit rate: 4 559 kb/s
Width: 1 916 pixels
Height: 800 pixels
Display aspect ratio: 2.40:1
Frame rate mode: Constant
Frame rate: 23.976 (23976/1000) FPS
Color space: YUV
Chroma subsampling: 4:2:0
Bit depth: 8 bits
Scan type: Progressive
Bits/(Pixel*Frame): 0.124
Stream size: 3.09 GiB (82%)
Title: BODY_CAM_2020_WEB-DL_1080p-BLUEBIRD
Default: Yes
Forced: No
Color range: Limited
Color primaries: BT.709
Transfer characteristics: BT.709
Matrix coefficients: BT.709

Audio #1
ID: 2
Format: AC-3
Format/Info: Audio Coding 3
Commercial name: Dolby Digital
Codec ID: A_AC3
Duration: 1 h 36 min
Bit rate mode: Constant
Bit rate: 384 kb/s
Channel(s): 6 channels
Channel layout: L R C LFE Ls Rs
Sampling rate: 48.0 kHz
Frame rate: 31.250 FPS (1536 SPF)
Compression mode: Lossy
Delay relative to video: -43 ms
Stream size: 265 MiB (7%)
Title: [DUB] DD 5.1 @ 384 kbps (iTunes)
Language: Russian
Service kind: Complete Main
Default: Yes
Forced: No

Audio #2
ID: 3
Format: E-AC-3
Format/Info: Enhanced AC-3
Commercial name: Dolby Digital Plus
Codec ID: A_EAC3
Duration: 1 h 36 min
Bit rate mode: Constant
Bit rate: 640 kb/s
Channel(s): 6 channels
Channel layout: L R C LFE Ls Rs
Sampling rate: 48.0 kHz
Frame rate: 31.250 FPS (1536 SPF)
Compression mode: Lossy
Delay relative to video: -43 ms
Stream size: 442 MiB (11%)
Title: [ORIGINAL] DD+ 5.1 @ 640 kbps
Language: English
Service kind: Complete Main
Default: No
Forced: No

Text #1
ID: 4
Format: UTF-8
Codec ID: S_TEXT/UTF8
Codec ID/Info: UTF-8 Plain Text
Duration: 1 h 36 min
Bit rate: 58 b/s
Count of elements: 709
Stream size: 41.5 KiB (0%)
Title: Full-length
Language: Russian
Default: No
Forced: No

Text #2
ID: 5
Format: UTF-8
Codec ID: S_TEXT/UTF8
Codec ID/Info: UTF-8 Plain Text
Duration: 1 h 36 min
Bit rate: 60 b/s
Count of elements: 709
Stream size: 42.7 KiB (0%)
Title: Full-length
Language: Ukrainian
Default: No
Forced: No

Text #3
ID: 6
Format: UTF-8
Codec ID: S_TEXT/UTF8
Codec ID/Info: UTF-8 Plain Text
Duration: 1 h 29 min
Bit rate: 40 b/s
Count of elements: 827
Stream size: 26.7 KiB (0%)
Title: Full-length
Language: English
Default: No
Forced: No

Text #4
ID: 7
Format: UTF-8
Codec ID: S_TEXT/UTF8
Codec ID/Info: UTF-8 Plain Text
Duration: 1 h 29 min
Bit rate: 44 b/s
Count of elements: 991
Stream size: 29.5 KiB (0%)
Title: SDH
Language: English
Default: No
Forced: No

Text #5
ID: 8
Format: UTF-8
Codec ID: S_TEXT/UTF8
Codec ID/Info: UTF-8 Plain Text
Duration: 1 h 32 min
Bit rate: 0 b/s
Count of elements: 17
Stream size: 666 Bytes (0%)
Title: Forced
Language: Russian
Default: Yes
Forced: No

Menu
00:00:00.000: en:1
00:07:54.057: en:2
00:13:20.466: en:3
00:21:47.473: en:4
00:29:31.395: en:5
00:36:30.147: en:6
00:43:18.263: en:7
00:50:36.826: en:8
00:57:42.001: en:9
01:04:23.360: en:10
01:13:07.384: en:11
01:20:50.221: en:12
01:30:02.064: en:13

pb.wtf



Скачать Видеорегистратор через торрент http://a.kartinko.org/image_library/originals/gRnPXKYK_0.jpg Скачать фильм Видеорегистратор через торрент бесплантно в хорошем качестве Описание: В годовщину смерти подростка от рук полиции один из патрульных полицейских перестает отвечать по рации. Его истерзанное тело ... 10 10 3
Торрент: Зарегистрирован [2020-09-05 18:24] · скачан: 69 раз
Статус: √ проверено
Размер: 3.78 GB
Как cкачать? Как скачать Видеорегистратор через торрент | qTorrent

% Раздел Тема Автор DL S | L
Фильмы 2019-2020 [DVDrip, WEB-DLRip, HDrip] (DUB, MVO) [ 708 MB ] Видеорегистратор / Body Cam [2020 WEB-DLRip ""] coc900 Скачать
4 | 0
# Фильмы [HD 720p, 1080p] (Хороший звук DUB, MVO) [ 11.84 GB ] Видеорегистратор / Body Cam [2020 BDRip 1080p] bober100 Скачать
6 | 0
# Фильмы [HD 720p, 1080p] (Хороший звук DUB, MVO) [ 4.68 GB ] Видеорегистратор / Body Cam [2020 BDRip 720p] bober100 Скачать
4 | 0
Фильмы 2019-2020 [DVDrip, WEB-DLRip, HDrip] (DUB, MVO) [ 1.45 GB ] Видеорегистратор / Body Cam [2020 HDRip] bober100 Скачать
6 | 0
Фильмы 2019-2020 [DVDrip, WEB-DLRip, HDrip] (DUB, MVO) [ 1.34 GB ] Видеорегистратор / Оперативная съемка / Body Cam [2020 WEB-DLRip-AVC] от MediaBit Lithuania Скачать
4 | 0

28-11-2019 20:33  

Отключить всю рекламу на сайте

    Дорогой пользователь! Огромная просьба, поблагодарите релизера, оцените раздачу и оставьте свои комментарий, если Вы скачали Видеорегистратор через торрент бесплатно! Внесите свою лепту в развитие PiratBit!
    Комментировать посты могут только пользователи прошедшие не сложную регистрацию
    Показать сообщения:    

    Видеорегистратор через торрент
    Скачать бесплатно Видеорегистратор
    Видеорегистратор скачать торрент
    Видеорегистратор смотреть онлайн
    Cкачать фильм Видеорегистратор бесплатно
    Видеорегистратор скачать торрент в хорошем качестве
    Видеорегистратор смотреть онлайн бесплатно в хорошем качестве


    Вы не можете начинать темы
    Вы не можете отвечать на сообщения
    Вы не можете редактировать свои сообщения
    Вы не можете удалять свои сообщения
    Вы не можете голосовать в опросах
    Вы не можете прикреплять файлы к сообщениям
    Вы можете скачивать файлы