Ссылка на приватное зеркало нашего сайта всего за 1$. Внимание количество ограничено!!!

2 сезон

iTunes

1 сезон

1

iTunes

iTunes

iTunes

1 сезон

RePack

30

ИГРА 18+

pack

ВАЖНО

!!Акция!!

Alien_RageХит недели

RePack

MK11
pack

Забери бонус

RePack

jed

!!Акция!!

Alien_Rage

RePack

fifa19

RePack

Assassins Creed: Odyssey

RePack

NEED FOR SPEED™ PAYBACK

4 сезон

9 сезон

Бесстыжие 9 сезон

Все сериалы

все сериалы на PB.wtf

RePack

FAR CRY 5
  

Видеорегистратор / Body Cam (Малик Бут) [2020, ужасы, детектив, триллер, BDRip 1080p] DUB [iTunes] pb.wtf

Видеорегистратор через торрент pb.wtf

Раздают: 7 [ 113 KB/s ]
Размер: 11.84 GB | Добавлен: 1 мес. 16 д. назад | Торрент скачан:144 раза
Скачать  

05-09-2020 18:24 Видеорегистратор Скачать торрент  

Видеорегистратор | Body Cam
Год выпуска: 2020
Страна: США
Выпущено: Ace Entertainment, Paramount Players
Жанр: ужасы, детектив, триллер
Продолжительность: 01:36:39
Перевод: Дублированный | iTunes
Субтитры: Russian (Full, Forced), Ukrainian (Full), English (Full, SDH)

Режиссер: Малик Бут

rating

В ролях: Мэри Джей Блайдж, Нат Вулф, Дэвид Зайас, Аника Нони Роуз, Дэвид Уоршофски, Йен Касселберри, Филип Форнах, Лара Грайс, Деметриус Гросс, Наима Рамос-Чепмен

Описание: В годовщину смерти подростка от рук полиции один из патрульных полицейских перестает отвечать по рации. Его истерзанное тело находят коллеги, а на записи с видеорегистратора женщина-полицейский Рене Ломито видит, как того подбрасывает вверх неведомая сила. Вскоре происходит убийство нескольких человек, в том числе полицейских, чем-то невидимым, и Рене решает расследовать дело сама.

Качество: BDRip 1080p
Формат: MKV

Видео: MPEG-4 AVC, 17.0 Mb/s, 1920x800, 23.976 FPS
Аудио#1 Russian: 48 kHz, AC3 Dolby Digital, 3/2 (L, C, R, l, r) + LFE ch, ~384 kbps | iTunes
Аудио#2 English: 48 kHz, AC3 Dolby Digital, 3/2 (L, C, R, l, r) + LFE ch, ~640 kbps | Original
скриншот  скриншот  скриншот  скриншот  

Complete name: BODY.CAM.2020.BDRip.1080p.ELEKTRI4KA.UNIONGANG..mkv
Format: Matroska
Format version: Version 4 / Version 2
File size: 11.8 GiB
Duration: 1 h 36 min
Overall bit rate: 17.5 Mb/s
Movie name: .ELEKTRI4KA.UNIONGANG.
Encoded date: UTC 2020-09-05 09:46:56
Writing application: mkvmerge v8.3.0 ('Over the Horizon') 64bit
Writing library: libebml v1.3.1 + libmatroska v1.4.2

Video
ID: 1
Format: AVC
Format/Info: Advanced Video Codec
Format profile: High@L4.1
Format settings, CABAC: Yes
Format settings, Reference frames: 4 frames
Codec ID: V_MPEG4/ISO/AVC
Duration: 1 h 36 min
Bit rate: 17.0 Mb/s
Width: 1 920 pixels
Height: 800 pixels
Display aspect ratio: 2.40:1
Frame rate mode: Constant
Frame rate: 23.976 (24000/1001) FPS
Color space: YUV
Chroma subsampling: 4:2:0
Bit depth: 8 bits
Scan type: Progressive
Bits/(Pixel*Frame): 0.462
Stream size: 11.1 GiB (94%)
Writing library: x264 core 142 r2479 dd79a61
Encoding settings: cabac=1 / ref=1 / deblock=1:0:0 / analyse=0x3:0x3 / me=dia / subme=1 / psy=1 / psy_rd=1.00:0.00 / mixed_ref=0 / me_range=16 / chroma_me=1 / trellis=0 / 8x8dct=1 / cqm=0 / deadzone=21, 11 / fast_pskip=1 / chroma_qp_offset=0 / threads=24 / lookahead_threads=4 / sliced_threads=0 / nr=0 / decimate=1 / interlaced=0 / bluray_compat=0 / constrained_intra=0 / bframes=3 / b_pyramid=2 / b_adapt=1 / b_bias=0 / direct=1 / weightb=1 / open_gop=0 / weightp=1 / keyint=240 / keyint_min=24 / scenecut=40 / intra_refresh=0 / rc_lookahead=0 / rc=abr / mbtree=0 / bitrate=17000 / ratetol=1.0 / qcomp=0.60 / qpmin=0 / qpmax=69 / qpstep=4 / vbv_maxrate=62500 / vbv_bufsize=78125 / nal_hrd=none / filler=0 / ip_ratio=1.40 / pb_ratio=1.30 / aq=1:1.00
Default: Yes
Forced: No
Color range: Limited
Color primaries: BT.709
Transfer characteristics: BT.709
Matrix coefficients: BT.709

Audio #1
ID: 2
Format: AC-3
Format/Info: Audio Coding 3
Mode extension: CM (complete main)
Format settings, Endianness: Big
Codec ID: A_AC3
Duration: 1 h 36 min
Bit rate mode: Constant
Bit rate: 384 kb/s
Channel(s): 6 channels
Channel positions: Front: L C R, Side: L R, LFE
Sampling rate: 48.0 kHz
Frame rate: 31.250 FPS (1536 spf)
Bit depth: 16 bits
Compression mode: Lossy
Delay relative to video: -83 ms
Stream size: 265 MiB (2%)
Language: Russian
Default: Yes
Forced: Yes

Audio #2
ID: 3
Format: AC-3
Format/Info: Audio Coding 3
Mode extension: CM (complete main)
Format settings, Endianness: Big
Codec ID: A_AC3
Duration: 1 h 36 min
Bit rate mode: Constant
Bit rate: 640 kb/s
Channel(s): 6 channels
Channel positions: Front: L C R, Side: L R, LFE
Sampling rate: 48.0 kHz
Frame rate: 31.250 FPS (1536 spf)
Bit depth: 16 bits
Compression mode: Lossy
Delay relative to video: -5 ms
Stream size: 442 MiB (4%)
Language: English
Default: No
Forced: No

Text #1
ID: 4
Format: UTF-8
Codec ID: S_TEXT/UTF8
Codec ID/Info: UTF-8 Plain Text
Duration: 1 h 32 min
Bit rate: 0 b/s
Count of elements: 17
Stream size: 666 Bytes (0%)
Title: Forced
Language: Russian
Default: Yes
Forced: Yes

Text #2
ID: 5
Format: UTF-8
Codec ID: S_TEXT/UTF8
Codec ID/Info: UTF-8 Plain Text
Duration: 1 h 36 min
Bit rate: 58 b/s
Count of elements: 709
Stream size: 41.5 KiB (0%)
Title: Full-length
Language: Russian
Default: No
Forced: No

Text #3
ID: 6
Format: UTF-8
Codec ID: S_TEXT/UTF8
Codec ID/Info: UTF-8 Plain Text
Duration: 1 h 36 min
Bit rate: 60 b/s
Count of elements: 709
Stream size: 42.7 KiB (0%)
Title: Full-length
Language: Ukrainian
Default: No
Forced: No

Text #4
ID: 7
Format: UTF-8
Codec ID: S_TEXT/UTF8
Codec ID/Info: UTF-8 Plain Text
Duration: 1 h 29 min
Bit rate: 40 b/s
Count of elements: 827
Stream size: 26.7 KiB (0%)
Title: Full-length
Language: English
Default: No
Forced: No

Text #5
ID: 8
Format: UTF-8
Codec ID: S_TEXT/UTF8
Codec ID/Info: UTF-8 Plain Text
Duration: 1 h 29 min
Bit rate: 44 b/s
Count of elements: 991
Stream size: 29.5 KiB (0%)
Title: SDH
Language: English
Default: No
Forced: No

Menu
00:00:00.000: en:1
00:07:54.057: en:2
00:13:20.466: en:3
00:21:47.473: en:4
00:29:31.395: en:5
00:36:30.147: en:6
00:43:18.263: en:7
00:50:36.826: en:8
00:57:42.001: en:9
01:04:23.360: en:10
01:13:07.384: en:11
01:20:50.221: en:12
01:30:02.064: en:13

pb.wtf



Скачать Видеорегистратор через торрент http://a.kartinko.org/image_library/originals/gRnPXKYK_0.jpg Скачать фильм Видеорегистратор через торрент бесплантно в хорошем качестве Описание: В годовщину смерти подростка от рук полиции один из патрульных полицейских перестает отвечать по рации. Его истерзанное тело ... 8.4 10 7
Торрент: Зарегистрирован [2020-09-05 18:24] · скачан: 144 раз
Статус: # сомнительно
Размер: 11.84 GB
Как cкачать? Как скачать Видеорегистратор через торрент | qTorrent

% Раздел Тема Автор DL S | L
Фильмы 2019-2020 [DVDrip, WEB-DLRip, HDrip] (DUB, MVO) [ 708 MB ] Видеорегистратор / Body Cam [2020 WEB-DLRip ""] coc900 Скачать
2 | 0
# Фильмы [HD 720p, 1080p] (Хороший звук DUB, MVO) [ 4.68 GB ] Видеорегистратор / Body Cam [2020 BDRip 720p] bober100 Скачать
2 | 0
Фильмы 2019-2020 [DVDrip, WEB-DLRip, HDrip] (DUB, MVO) [ 1.45 GB ] Видеорегистратор / Body Cam [2020 HDRip] bober100 Скачать
8 | 0
Фильмы (WEB-DL 720p, 1080p) [ 3.78 GB ] Видеорегистратор / Body Cam [2020 WEB-DL 1080p] bober100 Скачать
3 | 0
Фильмы 2019-2020 [DVDrip, WEB-DLRip, HDrip] (DUB, MVO) [ 1.34 GB ] Видеорегистратор / Оперативная съемка / Body Cam [2020 WEB-DLRip-AVC] от MediaBit Lithuania Скачать
6 | 0

28-11-2019 20:33  

Отключить всю рекламу на сайте

    Дорогой пользователь! Огромная просьба, поблагодарите релизера, оцените раздачу и оставьте свои комментарий, если Вы скачали Видеорегистратор через торрент бесплатно! Внесите свою лепту в развитие PiratBit!
    Комментировать посты могут только пользователи прошедшие не сложную регистрацию
    Показать сообщения:    

    Видеорегистратор через торрент
    Скачать бесплатно Видеорегистратор
    Видеорегистратор скачать торрент
    Видеорегистратор смотреть онлайн
    Cкачать фильм Видеорегистратор бесплатно
    Видеорегистратор скачать торрент в хорошем качестве
    Видеорегистратор смотреть онлайн бесплатно в хорошем качестве


    Вы не можете начинать темы
    Вы не можете отвечать на сообщения
    Вы не можете редактировать свои сообщения
    Вы не можете удалять свои сообщения
    Вы не можете голосовать в опросах
    Вы не можете прикреплять файлы к сообщениям
    Вы можете скачивать файлы