Ссылка на приватное зеркало нашего сайта всего за 1$. Внимание количество ограничено!!!

2 сезон

iTunes

1 сезон

1

iTunes

iTunes

iTunes

1 сезон

RePack

30

ИГРА 18+

pack

ВАЖНО

!!Акция!!

Alien_RageХит недели

RePack

MK11
pack

Забери бонус

RePack

jed

!!Акция!!

Alien_Rage

RePack

fifa19

RePack

Assassins Creed: Odyssey

RePack

NEED FOR SPEED™ PAYBACK

4 сезон

9 сезон

Бесстыжие 9 сезон

Все сериалы

все сериалы на PB.wtf

RePack

FAR CRY 5
  

Мой солнечный принц / My Summer Prince (Питер Салливан) [2016, Мелодрама, комедия, семейный, WEB-DL 1080p] [MVO] [Синема УС] от MediaBit pb.wtf

Мой солнечный принц через торрент pb.wtf

Размер: 6.31 GB | Добавлен: 1 мес. 16 д. назад | Торрент скачан:11 раз
Скачать  

06-09-2020 11:13 Мой солнечный принц Скачать торрент  


Мой солнечный принц / My Summer Prince
Информация о фильме:
Название: Мой солнечный принц
Оригинальное название: My Summer Prince
Год выхода: 2016
Жанр: Мелодрама, комедия, семейный
Режиссер: Питер Салливан

В ролях: Тейлор Коул, Джек Тернер, Лорен Холли, Марина Сиртис, Кассандра Клементи, Ванесса Энджел, Брайан Даре, Уолтер Платц, Эшли Сантос, Нэнси Риддл

Описание: Менеджер по связям с общественностью Дидра и её помощница Мэнди прилетели в небольшой городок в штате Айдахо, чтобы помочь принцу Колину, арестованному за порчу общественного имущества. Там у Мэнди появился шанс не только проявить себя перед лицом начальницы, но и узнать коронованного принца поближе.

rating

Страна: США
Студия: Hybrid, Mayor Entertainment
Продолжительность: 01:28:18
Перевод: Любительский (многоголосый, закадровый) - Синема УС



Информация о файле:
Кодек: AVC
Формат: MKV
Качество: WEB-DL 1080p
Видео: MPEG-4 AVC, 1920x1080 (16:9), 9 477 kb/s, 23.976 fps, 0.191
Аудио RU: AC3, 2 ch, 48 kHz, 192 kbps
Аудио EN: AC3, 6 ch, 48 kHz, 640 kbps
Субтитры: English


General
Unique ID : 221797210797028358505442535804555168703 (0xA6DC96C7C1E6EBD07B5F2FC922EB0BBF)
Complete name : D:uTorrentРипы_от_wolf1245_MediaBitМой солнечный принц - My Summer Prince (2016)_MediaBit.mkv
Format : Matroska
Format version : Version 4
File size : 6.31 GiB
Duration : 1 h 27 min
Overall bit rate : 10.3 Mb/s
Movie name : Мой солнечный принц / My Summer Prince (2016)_MediaBit
Encoded date : UTC 2020-09-06 10:54:15
Writing application : mkvmerge v49.0.0 ('Sick Of Losing Soulmates') 64-bit
Writing library : libebml v1.4.0 + libmatroska v1.6.1

Video
ID : 1
Format : AVC
Format/Info : Advanced Video Codec
Format profile : High@L4
Format settings : CABAC / 4 Ref Frames
Format settings, CABAC : Yes
Format settings, Reference frames : 4 frames
Codec ID : V_MPEG4/ISO/AVC
Duration : 1 h 27 min
Bit rate mode : Constant
Bit rate : 9 477 kb/s
Nominal bit rate : 10 000 kb/s
Width : 1 920 pixels
Height : 1 080 pixels
Display aspect ratio : 16:9
Frame rate mode : Constant
Frame rate : 23.976 (24000/1001) FPS
Color space : YUV
Chroma subsampling : 4:2:0
Bit depth : 8 bits
Scan type : Progressive
Bits/(Pixel*Frame) : 0.191
Stream size : 5.80 GiB (92%)
Title : ABM
Language : English
Default : Yes
Forced : No
Color range : Limited
Color primaries : BT.709
Transfer characteristics : BT.709
Matrix coefficients : BT.709

Audio #1
ID : 2
Format : AC-3
Format/Info : Audio Coding 3
Commercial name : Dolby Digital
Codec ID : A_AC3
Duration : 1 h 27 min
Bit rate mode : Constant
Bit rate : 192 kb/s
Channel(s) : 2 channels
Channel layout : L R
Sampling rate : 48.0 kHz
Frame rate : 31.250 FPS (1536 SPF)
Compression mode : Lossy
Stream size : 120 MiB (2%)
Title : MVO [Синема УС] MediaBit
Language : Russian
Service kind : Complete Main
Default : Yes
Forced : No

Audio #2
ID : 3
Format : AC-3
Format/Info : Audio Coding 3
Commercial name : Dolby Digital
Codec ID : A_AC3
Duration : 1 h 27 min
Bit rate mode : Constant
Bit rate : 640 kb/s
Channel(s) : 6 channels
Channel layout : L R C LFE Ls Rs
Sampling rate : 48.0 kHz
Frame rate : 31.250 FPS (1536 SPF)
Compression mode : Lossy
Stream size : 401 MiB (6%)
Title : Original
Language : English
Service kind : Complete Main
Default : No
Forced : No

Text
ID : 4
Format : UTF-8
Codec ID : S_TEXT/UTF8
Codec ID/Info : UTF-8 Plain Text
Duration : 1 h 26 min
Bit rate : 85 b/s
Count of elements : 1628
Stream size : 53.7 KiB (0%)
Language : English
Default : No
Forced : No
Релиз от:
pb.wtf



Скачать Мой солнечный принц через торрент https://d.radikal.ru/d37/2009/89/def9b5038b83.jpg Скачать фильм Мой солнечный принц через торрент бесплантно в хорошем качестве Описание: Менеджер по связям с общественностью Дидра и её помощница Мэнди прилетели в небольшой городок в штате Айдахо, чтобы помочь ... 7.7 10 3
Торрент: Зарегистрирован [2020-09-06 11:13] · скачан: 11 раз
Статус: T временная
Размер: 6.31 GB
Как cкачать? Как скачать Мой солнечный принц через торрент | qTorrent

% Раздел Тема Автор DL S | L
Фильмы 2016 [DVDrip, WEB-DLRip, HDrip] (DUB, MVO) [ 1.71 GB ] Мой солнечный принц / My Summer Prince [2016 Мело WEB-DLRip-AVC] [MVO] [Синема УС] от MediaBit Lithuania Скачать
2 | 0
T Фильмы 2016 [DVDrip, WEB-DLRip, HDrip] (DUB, MVO) [ 1.37 GB ] Мой солнечный принц / My Summer Prince [2016 Мело WEB-DLRip] [MVO] [Синема УС] от MediaBit Lithuania Скачать
1 | 0


Последний раз редактировалось: Lithuania (2020-09-09 17:23), всего редактировалось 1 раз

28-11-2019 20:33  

Отключить всю рекламу на сайте

    Дорогой пользователь! Огромная просьба, поблагодарите релизера, оцените раздачу и оставьте свои комментарий, если Вы скачали Мой солнечный принц через торрент бесплатно! Внесите свою лепту в развитие PiratBit!
    Комментировать посты могут только пользователи прошедшие не сложную регистрацию
    Показать сообщения:    

    Мой солнечный принц через торрент
    Скачать бесплатно Мой солнечный принц
    Мой солнечный принц скачать торрент
    Мой солнечный принц смотреть онлайн
    Cкачать фильм Мой солнечный принц бесплатно
    Мой солнечный принц скачать торрент в хорошем качестве
    Мой солнечный принц смотреть онлайн бесплатно в хорошем качестве


    Вы не можете начинать темы
    Вы не можете отвечать на сообщения
    Вы не можете редактировать свои сообщения
    Вы не можете удалять свои сообщения
    Вы не можете голосовать в опросах
    Вы не можете прикреплять файлы к сообщениям
    Вы можете скачивать файлы