Ссылка на приватное зеркало нашего сайта всего за 1$. Внимание количество ограничено!!!

2 сезон

iTunes

1 сезон

1

iTunes

iTunes

iTunes

1 сезон

RePack

30

ИГРА 18+

pack

ВАЖНО

!!Акция!!

Alien_RageХит недели

RePack

MK11
pack

Забери бонус

RePack

jed

!!Акция!!

Alien_Rage

RePack

fifa19

RePack

Assassins Creed: Odyssey

RePack

NEED FOR SPEED™ PAYBACK

4 сезон

9 сезон

Бесстыжие 9 сезон

Все сериалы

все сериалы на PB.wtf

RePack

FAR CRY 5
  

Мулан / Mulan (Ники Каро) [2020, драма, боевик, фэнтези, WEB-DL 1080p] [MVO] (FocusX) pb.wtf

Мулан через торрент pb.wtf

Раздают: 10 [ 10 KB/s ]
Размер: 8.06 GB | Добавлен: 1 мес. 16 д. назад | Торрент скачан:155 раз
Скачать  

09-09-2020 05:41 Мулан Скачать торрент  

Мулан / Mulan

Год выхода: 2020
Жанр: драма, боевик, фэнтези,
Страна: США, Китай, Канада
Студия: Walt Disney Pictures, Jason T. Reed Productions, Good Fear Content
Продолжительность: 01:55:08
Перевод: Профессиональный (многоголосый закадровый) FocusX

Режиссер: Ники Каро

В ролях: Ифэй Лю, Донни Йен, Гун Ли, Джет Ли, Джейсон Скотт Ли, Йосон Ань, Ци Ма, Розалинд Чао, Чжэн Пэйпэй, Сюзанна Тан

О фильме:
История о бесстрашной молодой девушке, которая выдаёт себя за мужчину, чтобы вступить в ряды армии, противостоящей Северным захватчикам, надвигающимся на Китай. Старшая дочь храброго воина Хуа, Мулан — энергичная и решительная девушка. Когда Император издаёт указ о том, что один мужчина из каждой семьи должен вступить в ряды Имперской армии, Мулан занимает место своего больного отца, еще не зная, что ей предстоит прославиться как одному из величайших воинов в истории Китая.



Качество: WEB-DL 1080p
Формат: MKV
Видео: H.264, 1920x1080, ~8 482 Кbps, 23,976 fps
Аудио 1: E-AC-3, 6 ch, 768 kbps, Русский (MVO FocusX)
Аудио 2: E-AC3 JOC, 6 ch, 768 kbps, Английский
Субтитры: Русские (Full (FOCS), английские, румынские
Общее
Уникальный идентификатор : 235013075166219154680451119878577148210 (0xB0CDDF336E2BE588C61556FA2A955132)
Полное имя : F:\Mulan.2020.1080p.DSNP.WEB-DL.Rus.Eng-PHOENiX_TeamHD.mkv
Формат : Matroska
Версия формата : Version 4
Размер файла : 8,06 Гбайт
Продолжительность : 1 ч. 55 м.
Режим общего битрейта : Переменный
Общий поток : 10,0 Мбит/сек
Название фильма : Mulan (2020) - Release for TeamHD
Дата кодирования : UTC 2020-09-08 22:23:51
Программа кодирования : mkvmerge v48.0.0 ('Fortress Around Your Heart') 64-bit
Библиотека кодирования : libebml v1.4.0 + libmatroska v1.6.0

Видео
Идентификатор : 1
Формат : AVC
Формат/Информация : Advanced Video Codec
Профиль формата : High@L4
Настройки формата : CABAC / 4 Ref Frames
Параметр CABAC формата : Да
Параметр RefFrames формата : 4 кадра
Идентификатор кодека : V_MPEG4/ISO/AVC
Продолжительность : 1 ч. 55 м.
Вид битрейта : Переменный
Битрейт : 8 482 Кбит/сек
Максимальный битрейт : 12,7 Мбит/сек
Ширина : 1 920 пикселей
Высота : 1 080 пикселей
Соотношение сторон : 16:9
Режим частоты кадров : Постоянный
Частота кадров : 23,976 (24000/1001) кадра/сек
Цветовое пространство : YUV
Субдискретизация насыщенности : 4:2:0
Битовая глубина : 8 бит
Тип развёртки : Прогрессивная
Бит/(Пиксели*Кадры) : 0.171
Размер потока : 6,82 Гбайт (85%)
Язык : English
Default : Да
Forced : Нет
Цветовой диапазон : Limited
Основные цвета : BT.709
Характеристики трансфера : BT.709
Коэффициенты матрицы : BT.709

Аудио #1
Идентификатор : 2
Формат : E-AC-3
Формат/Информация : Enhanced AC-3
Коммерческое название : Dolby Digital Plus
Идентификатор кодека : A_EAC3
Продолжительность : 1 ч. 55 м.
Вид битрейта : Постоянный
Битрейт : 768 Кбит/сек
Каналы : 6 каналов
Channel layout : L R C LFE Ls Rs
Частота : 48,0 КГц
Частота кадров : 31,250 кадров/сек (1536 SPF)
Метод сжатия : С потерями
Размер потока : 633 Мбайт (8%)
Заголовок : FocusX
Язык : Russian
Service kind : Complete Main
Default : Да
Forced : Нет

Аудио #2
Идентификатор : 3
Формат : E-AC-3 JOC
Формат/Информация : Enhanced AC-3 with Joint Object Coding
Коммерческое название : Dolby Digital Plus with Dolby Atmos
Идентификатор кодека : A_EAC3
Продолжительность : 1 ч. 55 м.
Вид битрейта : Постоянный
Битрейт : 768 Кбит/сек
Каналы : 6 каналов
Channel layout : L R C LFE Ls Rs
Частота : 48,0 КГц
Частота кадров : 31,250 кадров/сек (1536 SPF)
Метод сжатия : С потерями
Размер потока : 633 Мбайт (8%)
Язык : English
Service kind : Complete Main
Default : Нет
Forced : Нет
Complexity index : 16
Number of dynamic objects : 15
Bed channel count : 1 канал
Bed channel configuration : LFE

Текст #1
Идентификатор : 4
Формат : UTF-8
Идентификатор кодека : S_TEXT/UTF8
Идентификатор кодека/Информация : UTF-8 Plain Text
Продолжительность : 1 ч. 44 м.
Битрейт : 51 бит/сек
Count of elements : 775
Размер потока : 39,5 Кбайт (0%)
Заголовок : FocusX
Язык : Russian
Default : Нет
Forced : Нет

Текст #2
Идентификатор : 5
Формат : UTF-8
Идентификатор кодека : S_TEXT/UTF8
Идентификатор кодека/Информация : UTF-8 Plain Text
Продолжительность : 1 ч. 50 м.
Битрейт : 35 бит/сек
Count of elements : 1150
Размер потока : 28,5 Кбайт (0%)
Язык : English
Default : Нет
Forced : Нет

Текст #3
Идентификатор : 6
Формат : UTF-8
Идентификатор кодека : S_TEXT/UTF8
Идентификатор кодека/Информация : UTF-8 Plain Text
Продолжительность : 1 ч. 44 м.
Битрейт : 31 бит/сек
Count of elements : 849
Размер потока : 24,3 Кбайт (0%)
Язык : Romanian
Default : Нет
Forced : Нет
скриншот  скриншот  скриншот  
pb.wtf



Скачать Мулан через торрент https://a.radikal.ru/a02/2009/1f/19582f4c08c2.jpg Скачать фильм Мулан через торрент бесплантно в хорошем качестве О фильме:История о бесстрашной молодой девушке, которая выдаёт себя за мужчину, чтобы вступить в ряды армии, противостоящей Северным ... 10 10 8
Торрент: Зарегистрирован [2020-09-09 05:41] · скачан: 155 раз
Статус: √ проверено
Размер: 8.06 GB
Как cкачать? Как скачать Мулан через торрент | qTorrent

% Раздел Тема Автор DL S | L
Иностранные мультфильмы [ 1.37 GB ] Мулан 2 / Mulan II [2004 мультфильм DVDRip] Anonymous Скачать
3 | 0
Фильмы (WEB-DL 720p, 1080p) [ 7.96 GB ] Мулан / Mulan [2020 WEB-DL 1080p] [MVO] killermax2013 Скачать
25 | 0
Фильмы с авторской озвучкой [ 7.54 GB ] Мулан / Mulan [2020 WEB-DL 1080p] [AVO] [Есарев] - ExKinoRay Enigma2010 Скачать
151 | 41
Ultra HD (UHD: 2K, 4K, 8K) — видео сверхвысокой чёткости [ 14.98 GB ] Мулан / Mulan [2020 UHD WEB-DL 2160p] 3xMVO [HDRezka Studio FocusX IdeaFilm] bober100 Скачать
14 | 0
Фильмы 2019-2020 [DVDrip, WEB-DLRip, HDrip] (DUB, MVO) [ 2.58 GB ] Мулан / Mulan [2020 WEB-DLRip-AVC] [MVO] [FocusX IdeaFilm] - ExKinoRay Enigma2010 Скачать
192 | 44
Фильмы 2019-2020 [DVDrip, WEB-DLRip, HDrip] (DUB, MVO) [ 1.46 GB ] Мулан / Mulan [2020 WEB-DLRip] [MVO] Russian Mafia Скачать
28 | 0
Фильмы 2019-2020 [DVDrip, WEB-DLRip, HDrip] (DUB, MVO) [ 1.46 GB ] Мулан / Mulan [2020 WEB-DLRip] [MVO] killermax2013 Скачать
12 | 0

28-11-2019 20:33  

Отключить всю рекламу на сайте

    Дорогой пользователь! Огромная просьба, поблагодарите релизера, оцените раздачу и оставьте свои комментарий, если Вы скачали Мулан через торрент бесплатно! Внесите свою лепту в развитие PiratBit!
    Комментировать посты могут только пользователи прошедшие не сложную регистрацию
    Показать сообщения:    

    Мулан через торрент
    Скачать бесплатно Мулан
    Мулан скачать торрент
    Мулан смотреть онлайн
    Cкачать фильм Мулан бесплатно
    Мулан скачать торрент в хорошем качестве
    Мулан смотреть онлайн бесплатно в хорошем качестве


    Вы не можете начинать темы
    Вы не можете отвечать на сообщения
    Вы не можете редактировать свои сообщения
    Вы не можете удалять свои сообщения
    Вы не можете голосовать в опросах
    Вы не можете прикреплять файлы к сообщениям
    Вы можете скачивать файлы