Ссылка на приватное зеркало нашего сайта всего за 1$. Внимание количество ограничено!!!

2 сезон

iTunes

1 сезон

1

iTunes

iTunes

iTunes

1 сезон

RePack

30

ИГРА 18+

pack

ВАЖНО

!!Акция!!

Alien_RageХит недели

RePack

MK11
pack

Забери бонус

RePack

jed

!!Акция!!

Alien_Rage

RePack

fifa19

RePack

Assassins Creed: Odyssey

RePack

NEED FOR SPEED™ PAYBACK

4 сезон

9 сезон

Бесстыжие 9 сезон

Все сериалы

все сериалы на PB.wtf

RePack

FAR CRY 5
  

Ночная жизнь / Nightlife (Симон Ферхоэвен) [2020, Комедия, мелодрама, BDRip 720p] MVO [iTunes] pb.wtf

Ночная жизнь через торрент pb.wtf

Раздают: 5 [ 2 KB/s ]
Размер: 4.36 GB | Добавлен: 1 мес. 12 д. назад | Торрент скачан:49 раз
Скачать  

09-09-2020 16:20 Ночная жизнь Скачать торрент  

Ночная жизнь | Nightlife
Год выпуска: 2020
Страна: Германия
Студия: SevenPictures Film, Warner Bros. Film Productions Germany
Жанр: Комедия, мелодрама
Продолжительность: 01:55:21
Перевод: Профессиональный (многоголосый) | iTunes
Субтитры: Немецкие

Режиссер: Симон Ферхоэвен

rating

В ролях: Элиас ЭмБарек, Джулиан Лооман, Фредерик Лау, Каро Культ, Николас Офчарек, Кристина ду Рего, Симон Ферхоэвен, Полина Рожински, Милена Драйсиг, Стефан Хорнунг

Описание: Когда двум друзьям-барменам отказывают в кредите на открытие собственного ночного клуба, они пытаются найти другие способы достать деньги. После одной такой неудачной попытки местная мафия ставит им условие: вернуть кругленькую сумму к полудню следующего дня — или они покойники. По стечению обстоятельств именно на этот вечер у одного из друзей назначено свидание с девушкой его мечты, которое он никак не может отменить. Теперь два друга должны придумать, как не оставить девушку без внимания, при этом остаться в живых к полудню следующего дня.

Качество: BDRip 720p
Формат: MKV

Видео: MPEG-4 AVC, 1280x534, 4390 Kbit/s, 23.976 fps
Аудио #01: 48 kHz, AC3, 5.1, 384 Kbps | iTunes | RUS |
Аудио #02: 48 kHz, AC3, 5.1, 640 Kbps | Оригинал | GER |
скриншот  скриншот  скриншот  скриншот  скриншот  

General
Unique ID : 212186604340300332884105943711840825210 (0x9FA1A74C691C8CD0793C4EC927456F7A)
Complete name : D:Video111Nightlife.2020.BDRip.720p.seleZen.mkv
Format : Matroska
Format version : Version 4
File size : 4.36 GiB
Duration : 1 h 55 min
Overall bit rate : 5 416 kb/s
Movie name : Nightlife 2020 from селезень
Encoded date : UTC 2020-09-09 15:39:05
Writing application : mkvmerge v40.0.0 ('Old Town Road + Pony') 64-bit
Writing library : libebml v1.3.9 + libmatroska v1.5.2

Video
ID : 1
Format : AVC
Format/Info : Advanced Video Codec
Format profile : High@L4.1
Format settings : CABAC / 12 Ref Frames
Format settings, CABAC : Yes
Format settings, Reference : 12 frames
Codec ID : V_MPEG4/ISO/AVC
Duration : 1 h 55 min
Bit rate : 4 390 kb/s
Width : 1 280 pixels
Height : 534 pixels
Display aspect ratio : 2.40:1
Frame rate mode : Constant
Frame rate : 23.976 (24000/1001) FPS
Color space : YUV
Chroma subsampling : 4:2:0
Bit depth : 8 bits
Scan type : Progressive
Bits/(Pixel*Frame) : 0.268
Stream size : 3.54 GiB (81%)
Title : Encoded by seleZen
Writing library : x264 core 148 r2705kMod 3f5ed56
Encoding settings : cabac=1 / ref=12 / deblock=1:-2:-2 / analyse=0x3:0x133 / me=umh / subme=10 / psy=1 / fade_compensate=0.00 / psy_rd=1.00:0.00 / mixed_ref=1 / me_range=32 / chroma_me=1 / trellis=2 / 8x8dct=1 / cqm=0 / deadzone=21, 11 / fast_pskip=0 / chroma_qp_offset=-2 / threads=17 / lookahead_threads=2 / sliced_threads=0 / nr=0 / decimate=0 / interlaced=0 / bluray_compat=0 / constrained_intra=0 / fgo=0 / bframes=9 / b_pyramid=2 / b_adapt=2 / b_bias=0 / direct=3 / weightb=1 / open_gop=0 / weightp=2 / keyint=240 / keyint_min=23 / scenecut=40 / intra_refresh=0 / rc_lookahead=50 / rc=crf / mbtree=0 / crf=16.8000 / qcomp=0.60 / qpmin=0 / qpmax=51 / qpstep=4 / vbv_maxrate=50000 / vbv_bufsize=62500 / crf_max=0.0 / nal_hrd=none / filler=0 / ip_ratio=1.40 / pb_ratio=1.30 / aq=3:0.80
Language : English
Default : Yes
Forced : No

Audio #1
ID : 2
Format : AC-3
Format/Info : Audio Coding 3
Commercial name : Dolby Digital
Codec ID : A_AC3
Duration : 1 h 55 min
Bit rate mode : Constant
Bit rate : 384 kb/s
Channel(s) : 6 channels
Channel layout : L R C LFE Ls Rs
Sampling rate : 48.0 kHz
Frame rate : 31.250 FPS (1536 SPF)
Compression mode : Lossy
Stream size : 317 MiB (7%)
Title : iTunes
Language : Russian
Service kind : Complete Main
Default : Yes
Forced : Yes

Audio #2
ID : 3
Format : AC-3
Format/Info : Audio Coding 3
Commercial name : Dolby Digital
Codec ID : A_AC3
Duration : 1 h 55 min
Bit rate mode : Constant
Bit rate : 640 kb/s
Channel(s) : 6 channels
Channel layout : L R C LFE Ls Rs
Sampling rate : 48.0 kHz
Frame rate : 31.250 FPS (1536 SPF)
Compression mode : Lossy
Stream size : 528 MiB (12%)
Title : Original
Language : German
Service kind : Complete Main
Default : No
Forced : No

Text
ID : 4
Format : UTF-8
Codec ID : S_TEXT/UTF8
Codec ID/Info : UTF-8 Plain Text
Duration : 1 h 54 min
Bit rate : 72 b/s
Count of elements : 1596
Stream size : 61.3 KiB (0%)
Title : SDH
Language : German
Default : No
Forced : No

Menu
00:00:00.000 : en:00:00:00.000
00:09:41.748 : en:00:09:41.748
00:18:27.148 : en:00:18:27.148
00:26:49.566 : en:00:26:49.566
00:35:57.197 : en:00:35:57.197
00:43:24.727 : en:00:43:24.727
00:52:22.473 : en:00:52:22.473
01:02:01.468 : en:01:02:01.468
01:11:18.649 : en:01:11:18.649
01:20:52.222 : en:01:20:52.222
01:29:11.680 : en:01:29:11.680
01:41:01.097 : en:01:41:01.097

pb.wtf



Скачать Ночная жизнь через торрент https://i112.fastpic.ru/big/2020/0909/28/899e5d0da6a2ae68ab6ebd3466e4d728.jpg Скачать фильм Ночная жизнь через торрент бесплантно в хорошем качестве Описание: Когда двум друзьям-барменам отказывают в кредите на открытие собственного ночного клуба, они пытаются найти другие способы ... 10 10 2
Торрент: Зарегистрирован [2020-09-09 16:20] · скачан: 49 раз
Статус: √ проверено
Размер: 4.36 GB
Как cкачать? Как скачать Ночная жизнь через торрент | qTorrent

% Раздел Тема Автор DL S | L
Фильмы (Blu-ray, BD-Remux, HDDVD) [ 26.37 GB ] Ночная жизнь / Nightlife [2020 BDRemux 1080p] [MVO] () Russian Mafia Скачать
1 | 0
Фильмы 2019-2020 [DVDrip, WEB-DLRip, HDrip] (DUB, MVO) [ 2.13 GB ] Ночная жизнь / Nightlife [2020 BDRip] - Twi7ter Скачать
18 | 0
Фильмы 2019-2020 [DVDrip, WEB-DLRip, HDrip] (DUB, MVO) [ 1.41 GB ] Ночная жизнь / Nightlife [2020 BDRip] - Twi7ter Скачать
19 | 0
Фильмы 2019-2020 [DVDrip, WEB-DLRip, HDrip] (DUB, MVO) [ 748 MB ] Ночная жизнь / Nightlife [2020 HDRip] MVO bober100 Скачать
3 | 0
Фильмы 2019-2020 [DVDrip, WEB-DLRip, HDrip] (DUB, MVO) [ 752 MB ] Ночная жизнь / Nightlife [2020 Мело HDRip-AVC] [MVO] от MediaBit Lithuania Скачать
3 | 0
Фильмы 2019-2020 [DVDrip, WEB-DLRip, HDrip] (DUB, MVO) [ 2.13 GB ] Ночная жизнь / Nightlife [2020 BDRip-AVC] MVO bober100 Скачать
1 | 0
Фильмы 2019-2020 [DVDrip, WEB-DLRip, HDrip] (DUB, MVO) [ 1.46 GB ] Ночная жизнь / Nightlife [2020 BDRip] MVO bober100 Скачать
3 | 0

28-11-2019 20:33  

Отключить всю рекламу на сайте

    Дорогой пользователь! Огромная просьба, поблагодарите релизера, оцените раздачу и оставьте свои комментарий, если Вы скачали Ночная жизнь через торрент бесплатно! Внесите свою лепту в развитие PiratBit!
    Комментировать посты могут только пользователи прошедшие не сложную регистрацию
    Показать сообщения:    

    Ночная жизнь через торрент
    Скачать бесплатно Ночная жизнь
    Ночная жизнь скачать торрент
    Ночная жизнь смотреть онлайн
    Cкачать фильм Ночная жизнь бесплатно
    Ночная жизнь скачать торрент в хорошем качестве
    Ночная жизнь смотреть онлайн бесплатно в хорошем качестве


    Вы не можете начинать темы
    Вы не можете отвечать на сообщения
    Вы не можете редактировать свои сообщения
    Вы не можете удалять свои сообщения
    Вы не можете голосовать в опросах
    Вы не можете прикреплять файлы к сообщениям
    Вы можете скачивать файлы